  0
SECTION
  2
HEADER
  9
$ACADVER
  1
AC1014
  9
$DWGCODEPAGE
  3
ANSI_932
  9
$LTSCALE
 40
20.0
  9
$FILLMODE
 70
     1
  9
$CLAYER
  8
0
  9
$PDMODE
 70
     0
  9
$SPLFRAME
 70
     0
  9
$SPLINETYPE
 70
     6
  9
$SPLINESEGS
 70
     8
  9
$DIMASZ
 40
2.000000
  9
$DIMEXE
 40
2.000000
  9
$DIMEXO
 40
0.800000
  9
$DIMTAD
 70
     1
  9
$DIMTIH
 70
     0
  9
$DIMTOH
 70
     0
  9
$DIMTVP
 40
0.500000
  9
$DIMTXT
 40
3.100000
  9
$EXTMIN
 10
0.000000
 20
0.000000
 30
0.000000
  9
$EXTMAX
 10
297.000000
 20
420.000000
 30
0.000000
  9
$MEASUREMENT
 70
  1
  9
$LIMMIN
 10
0.000000
 20
0.000000
  9
$LIMMAX
 10
297.000000
 20
420.000000
  9
$HANDLING
 70
     1
  9
$HANDSEED
  5
5A5
  9
$DIMBLK
  1
_OPEN
  9
$DIMDEC
 70
     3
  9
$DIMAUNIT
 70
     1
  9
$DIMZIN
 70
     8
  9
$DIMTOFL
 70
     1
  0
ENDSEC
  0
SECTION
  2
CLASSES
  0
ENDSEC
  0
SECTION
  2
TABLES
  0
TABLE
  2
VPORT
  5
544
100
AcDbSymbolTable
 70
     1
  0
VPORT
  5
545
100
AcDbSymbolTableRecord
100
AcDbViewportTableRecord
  2
*ACTIVE
 70
     0
 12
210.120582
 22
148.500000
 40
297.000000
 41
1.414953
  0
ENDTAB
  0
TABLE
  2
LTYPE
  5
546
100
AcDbSymbolTable
 70
     4
  0
LTYPE
  5
547
100
AcDbSymbolTableRecord
100
AcDbLinetypeTableRecord
  2
BYBLOCK
 70
     0
  3

 72
    65
 73
     0
 40
0.0
  0
LTYPE
  5
548
100
AcDbSymbolTableRecord
100
AcDbLinetypeTableRecord
  2
BYLAYER
 70
     0
  3

 72
    65
 73
     0
 40
0.0
  0
LTYPE
  5
549
100
AcDbSymbolTableRecord
100
AcDbLinetypeTableRecord
  2
CONTINUOUS
 70
     0
  3
Solid line (NEC CAE2D for Win R12.1 : 2018.11.16)
 72
    65
 73
     0
 40
0.0
  0
LTYPE
  5
54A
100
AcDbSymbolTableRecord
100
AcDbLinetypeTableRecord
  2
HIDDEN
 70
     0
  3
__ __ __ __ __ __ __ __ __ __ __ __ __ __
 72
    65
 73
     2
 40
0.375
 49
0.25
 74
     0
 49
-0.125
 74
     0
  0
LTYPE
  5
54B
100
AcDbSymbolTableRecord
100
AcDbLinetypeTableRecord
  2
CENTER
 70
     0
  3
____ _ ____ _ ____ _ ____ _ ____ _ ____
 72
    65
 73
     4
 40
2.0
 49
1.25
 74
     0
 49
-0.25
 74
     0
 49
0.25
 74
     0
 49
-0.25
 74
     0
  0
LTYPE
  5
54C
100
AcDbSymbolTableRecord
100
AcDbLinetypeTableRecord
  2
PHANTOM
 70
     0
  3
______  __  __  ______  __  __  ______ 
 72
    65
 73
     6
 40
2.5
 49
1.25
 74
     0
 49
-0.25
 74
     0
 49
0.25
 74
     0
 49
-0.25
 74
     0
 49
0.25
 74
     0
 49
-0.25
 74
     0
  0
ENDTAB
  0
TABLE
  2
LAYER
  5
54D
100
AcDbSymbolTable
 70
    12
  0
LAYER
  5
54E
100
AcDbSymbolTableRecord
100
AcDbLayerTableRecord
  2
0
 70
     0
 62
     7
  6
CONTINUOUS
  0
LAYER
  5
54F
100
AcDbSymbolTableRecord
100
AcDbLayerTableRecord
  2
MAIN0
 70
     0
 62
     7
  6
CONTINUOUS
  0
LAYER
  5
550
100
AcDbSymbolTableRecord
100
AcDbLayerTableRecord
  2
MAIN1
 70
     0
 62
     7
  6
CONTINUOUS
  0
LAYER
  5
551
100
AcDbSymbolTableRecord
100
AcDbLayerTableRecord
  2
MAIN2
 70
     0
 62
     7
  6
CONTINUOUS
  0
LAYER
  5
552
100
AcDbSymbolTableRecord
100
AcDbLayerTableRecord
  2
MAIN3
 70
     0
 62
     7
  6
CONTINUOUS
  0
LAYER
  5
553
100
AcDbSymbolTableRecord
100
AcDbLayerTableRecord
  2
MAIN4
 70
     0
 62
     7
  6
CONTINUOUS
  0
LAYER
  5
554
100
AcDbSymbolTableRecord
100
AcDbLayerTableRecord
  2
MAIN5
 70
     0
 62
     7
  6
CONTINUOUS
  0
LAYER
  5
555
100
AcDbSymbolTableRecord
100
AcDbLayerTableRecord
  2
MAIN6
 70
     0
 62
     7
  6
CONTINUOUS
  0
LAYER
  5
556
100
AcDbSymbolTableRecord
100
AcDbLayerTableRecord
  2
MAIN10
 70
     0
 62
     7
  6
CONTINUOUS
  0
LAYER
  5
557
100
AcDbSymbolTableRecord
100
AcDbLayerTableRecord
  2
MAIN1023
 70
     0
 62
    16
  6
CONTINUOUS
  0
LAYER
  5
558
100
AcDbSymbolTableRecord
100
AcDbLayerTableRecord
  2
WAKU0
 70
     0
 62
     7
  6
CONTINUOUS
  0
LAYER
  5
559
100
AcDbSymbolTableRecord
100
AcDbLayerTableRecord
  2
WAKU1023
 70
     0
 62
    16
  6
CONTINUOUS
  0
ENDTAB
  0
TABLE
  2
STYLE
  5
55A
100
AcDbSymbolTable
 70
     4
  0
STYLE
  5
55B
100
AcDbSymbolTableRecord
100
AcDbTextStyleTableRecord
  2
STANDARD
 70
    64
 40
0.0
 41
1.0
 50
0.0
 71
     0
 42
3.099999904632568
  3
TXT
  4

  0
STYLE
  5
55C
100
AcDbSymbolTableRecord
100
AcDbTextStyleTableRecord
  2
ANKTATE
 70
    68
 40
0.0
 41
1.0
 50
0.0
 71
     0
 42
3.099999904632568
  3
TXT
  4

  0
STYLE
  5
108
100
AcDbSymbolTableRecord
100
AcDbTextStyleTableRecord
  2
KNJYOKO
 70
    64
 40
0.0
 41
1.0
 50
0.0
 71
     0
 42
3.099999904632568
  3
TXT
  4
BIGFONT
  0
STYLE
  5
55D
100
AcDbSymbolTableRecord
100
AcDbTextStyleTableRecord
  2
KNJTATE
 70
    68
 40
0.0
 41
1.0
 50
0.0
 71
     0
 42
3.099999904632568
  3
TXT
  4
BIGFONT
  0
ENDTAB
  0
TABLE
  2
VIEW
  5
55E
100
AcDbSymbolTable
 70
     0
  0
ENDTAB
  0
TABLE
  2
UCS
  5
55F
100
AcDbSymbolTable
 70
     0
  0
ENDTAB
  0
TABLE
  2
APPID
  5
560
100
AcDbSymbolTable
 70
     1
  0
APPID
  5
561
100
AcDbSymbolTableRecord
100
AcDbRegAppTableRecord
  2
ACAD
 70
     0
  0
ENDTAB
  0
TABLE
  2
DIMSTYLE
  5
562
100
AcDbSymbolTable
 70
     1
  0
DIMSTYLE
105
563
100
AcDbSymbolTableRecord
100
AcDbDimStyleTableRecord
  2
STANDARD
 70
     0
 41
2.000000
 44
2.000000
 42
0.800000
145
0.661290
140
3.100000
144
1.000000
146
0.903226
340
55B
  0
DIMSTYLE
105
564
100
AcDbSymbolTableRecord
100
AcDbDimStyleTableRecord
  2
MAIN001
 70
     0
 41
2.000000
 44
2.000000
 42
0.800000
145
0.661290
140
3.100000
144
1.000000
146
0.903226
 77
     1
 73
     0
 74
     0
271
     3
275
     1
 78
     8
172
     1
340
55B
  0
DIMSTYLE
105
565
100
AcDbSymbolTableRecord
100
AcDbDimStyleTableRecord
  2
WAKU002
 70
     0
 41
2.000000
 44
2.000000
 42
0.800000
145
0.661290
140
3.100000
144
1.000000
146
0.903226
 77
     1
 73
     0
 74
     0
271
     3
275
     1
 78
     8
172
     1
340
55B
  0
ENDTAB
  0
TABLE
  2
BLOCK_RECORD
  5
566
100
AcDbSymbolTable
 70
    63
  0
BLOCK_RECORD
  5
567
100
AcDbSymbolTableRecord
100
AcDbBlockTableRecord
  2
*MODEL_SPACE
  0
BLOCK_RECORD
  5
568
100
AcDbSymbolTableRecord
100
AcDbBlockTableRecord
  2
*PAPER_SPACE
  0
BLOCK_RECORD
  5
1
100
AcDbSymbolTableRecord
100
AcDbBlockTableRecord
  2
_NONE
  0
BLOCK_RECORD
  5
4
100
AcDbSymbolTableRecord
100
AcDbBlockTableRecord
  2
_CLOSED
  0
BLOCK_RECORD
  5
B
100
AcDbSymbolTableRecord
100
AcDbBlockTableRecord
  2
_DOT
  0
BLOCK_RECORD
  5
13
100
AcDbSymbolTableRecord
100
AcDbBlockTableRecord
  2
_OPEN
  0
BLOCK_RECORD
  5
19
100
AcDbSymbolTableRecord
100
AcDbBlockTableRecord
  2
_ORIGIN
  0
BLOCK_RECORD
  5
1E
100
AcDbSymbolTableRecord
100
AcDbBlockTableRecord
  2
_OPEN30
  0
BLOCK_RECORD
  5
24
100
AcDbSymbolTableRecord
100
AcDbBlockTableRecord
  2
_BOXFILLED
  0
BLOCK_RECORD
  5
29
100
AcDbSymbolTableRecord
100
AcDbBlockTableRecord
  2
_BOXBLANK
  0
BLOCK_RECORD
  5
31
100
AcDbSymbolTableRecord
100
AcDbBlockTableRecord
  2
_OBLIQUE
  0
BLOCK_RECORD
  5
35
100
AcDbSymbolTableRecord
100
AcDbBlockTableRecord
  2
_OPEN90
  0
BLOCK_RECORD
  5
3B
100
AcDbSymbolTableRecord
100
AcDbBlockTableRecord
  2
_CLOSEDBLANK
  0
BLOCK_RECORD
  5
41
100
AcDbSymbolTableRecord
100
AcDbBlockTableRecord
  2
_DOTBLANK
  0
BLOCK_RECORD
  5
569
100
AcDbSymbolTableRecord
100
AcDbBlockTableRecord
  2
*D0
  0
BLOCK_RECORD
  5
56A
100
AcDbSymbolTableRecord
100
AcDbBlockTableRecord
  2
*D1
  0
BLOCK_RECORD
  5
56B
100
AcDbSymbolTableRecord
100
AcDbBlockTableRecord
  2
*D2
  0
BLOCK_RECORD
  5
56C
100
AcDbSymbolTableRecord
100
AcDbBlockTableRecord
  2
*D3
  0
BLOCK_RECORD
  5
56D
100
AcDbSymbolTableRecord
100
AcDbBlockTableRecord
  2
*D4
  0
BLOCK_RECORD
  5
56E
100
AcDbSymbolTableRecord
100
AcDbBlockTableRecord
  2
*D5
  0
BLOCK_RECORD
  5
56F
100
AcDbSymbolTableRecord
100
AcDbBlockTableRecord
  2
*D6
  0
BLOCK_RECORD
  5
570
100
AcDbSymbolTableRecord
100
AcDbBlockTableRecord
  2
*D7
  0
BLOCK_RECORD
  5
571
100
AcDbSymbolTableRecord
100
AcDbBlockTableRecord
  2
*D8
  0
BLOCK_RECORD
  5
572
100
AcDbSymbolTableRecord
100
AcDbBlockTableRecord
  2
*D9
  0
BLOCK_RECORD
  5
573
100
AcDbSymbolTableRecord
100
AcDbBlockTableRecord
  2
*D10
  0
BLOCK_RECORD
  5
574
100
AcDbSymbolTableRecord
100
AcDbBlockTableRecord
  2
*D11
  0
BLOCK_RECORD
  5
575
100
AcDbSymbolTableRecord
100
AcDbBlockTableRecord
  2
*D12
  0
BLOCK_RECORD
  5
576
100
AcDbSymbolTableRecord
100
AcDbBlockTableRecord
  2
*D13
  0
BLOCK_RECORD
  5
577
100
AcDbSymbolTableRecord
100
AcDbBlockTableRecord
  2
*D14
  0
BLOCK_RECORD
  5
578
100
AcDbSymbolTableRecord
100
AcDbBlockTableRecord
  2
*D15
  0
BLOCK_RECORD
  5
579
100
AcDbSymbolTableRecord
100
AcDbBlockTableRecord
  2
*D16
  0
BLOCK_RECORD
  5
57A
100
AcDbSymbolTableRecord
100
AcDbBlockTableRecord
  2
D17
  0
BLOCK_RECORD
  5
57B
100
AcDbSymbolTableRecord
100
AcDbBlockTableRecord
  2
*D18
  0
BLOCK_RECORD
  5
57C
100
AcDbSymbolTableRecord
100
AcDbBlockTableRecord
  2
*D19
  0
BLOCK_RECORD
  5
57D
100
AcDbSymbolTableRecord
100
AcDbBlockTableRecord
  2
*D20
  0
BLOCK_RECORD
  5
57E
100
AcDbSymbolTableRecord
100
AcDbBlockTableRecord
  2
M0
  0
BLOCK_RECORD
  5
57F
100
AcDbSymbolTableRecord
100
AcDbBlockTableRecord
  2
M1
  0
BLOCK_RECORD
  5
580
100
AcDbSymbolTableRecord
100
AcDbBlockTableRecord
  2
*X0
  0
BLOCK_RECORD
  5
581
100
AcDbSymbolTableRecord
100
AcDbBlockTableRecord
  2
*D21
  0
BLOCK_RECORD
  5
582
100
AcDbSymbolTableRecord
100
AcDbBlockTableRecord
  2
*D22
  0
BLOCK_RECORD
  5
583
100
AcDbSymbolTableRecord
100
AcDbBlockTableRecord
  2
D23
  0
BLOCK_RECORD
  5
584
100
AcDbSymbolTableRecord
100
AcDbBlockTableRecord
  2
D24
  0
BLOCK_RECORD
  5
585
100
AcDbSymbolTableRecord
100
AcDbBlockTableRecord
  2
*D25
  0
BLOCK_RECORD
  5
586
100
AcDbSymbolTableRecord
100
AcDbBlockTableRecord
  2
*D26
  0
BLOCK_RECORD
  5
587
100
AcDbSymbolTableRecord
100
AcDbBlockTableRecord
  2
*D27
  0
BLOCK_RECORD
  5
588
100
AcDbSymbolTableRecord
100
AcDbBlockTableRecord
  2
D28
  0
BLOCK_RECORD
  5
589
100
AcDbSymbolTableRecord
100
AcDbBlockTableRecord
  2
*D29
  0
BLOCK_RECORD
  5
58A
100
AcDbSymbolTableRecord
100
AcDbBlockTableRecord
  2
*D30
  0
BLOCK_RECORD
  5
58B
100
AcDbSymbolTableRecord
100
AcDbBlockTableRecord
  2
*D31
  0
BLOCK_RECORD
  5
58C
100
AcDbSymbolTableRecord
100
AcDbBlockTableRecord
  2
*D32
  0
BLOCK_RECORD
  5
58D
100
AcDbSymbolTableRecord
100
AcDbBlockTableRecord
  2
*D33
  0
BLOCK_RECORD
  5
58E
100
AcDbSymbolTableRecord
100
AcDbBlockTableRecord
  2
*D34
  0
BLOCK_RECORD
  5
58F
100
AcDbSymbolTableRecord
100
AcDbBlockTableRecord
  2
*D35
  0
BLOCK_RECORD
  5
590
100
AcDbSymbolTableRecord
100
AcDbBlockTableRecord
  2
*D36
  0
BLOCK_RECORD
  5
591
100
AcDbSymbolTableRecord
100
AcDbBlockTableRecord
  2
*D37
  0
BLOCK_RECORD
  5
592
100
AcDbSymbolTableRecord
100
AcDbBlockTableRecord
  2
*D38
  0
BLOCK_RECORD
  5
593
100
AcDbSymbolTableRecord
100
AcDbBlockTableRecord
  2
*D39
  0
BLOCK_RECORD
  5
594
100
AcDbSymbolTableRecord
100
AcDbBlockTableRecord
  2
*D40
  0
BLOCK_RECORD
  5
595
100
AcDbSymbolTableRecord
100
AcDbBlockTableRecord
  2
*D41
  0
BLOCK_RECORD
  5
596
100
AcDbSymbolTableRecord
100
AcDbBlockTableRecord
  2
*D42
  0
BLOCK_RECORD
  5
597
100
AcDbSymbolTableRecord
100
AcDbBlockTableRecord
  2
D43
  0
BLOCK_RECORD
  5
598
100
AcDbSymbolTableRecord
100
AcDbBlockTableRecord
  2
*D44
  0
BLOCK_RECORD
  5
599
100
AcDbSymbolTableRecord
100
AcDbBlockTableRecord
  2
*D45
  0
BLOCK_RECORD
  5
59A
100
AcDbSymbolTableRecord
100
AcDbBlockTableRecord
  2
*D46
  0
BLOCK_RECORD
  5
59B
100
AcDbSymbolTableRecord
100
AcDbBlockTableRecord
  2
*D47
  0
ENDTAB
  0
ENDSEC
  0
SECTION
  2
BLOCKS
  0
BLOCK
  5
59C
100
AcDbEntity
  8
0
100
AcDbBlockBegin
  2
*MODEL_SPACE
 70
     0
 10
0.0
 20
0.0
 30
0.0
  3
*MODEL_SPACE
  1

  0
ENDBLK
  5
59D
100
AcDbEntity
  8
0
100
AcDbBlockEnd
  0
BLOCK
  5
59E
100
AcDbEntity
  8
0
100
AcDbBlockBegin
  2
*PAPER_SPACE
 70
     0
 10
0.0
 20
0.0
 30
0.0
  3
*PAPER_SPACE
  1

  0
ENDBLK
  5
59F
100
AcDbEntity
  8
0
100
AcDbBlockEnd
  0
BLOCK
  5
2
100
AcDbEntity
  8
0
100
AcDbBlockBegin
  2
_NONE
 70
     0
 10
0.0
 20
0.0
 30
0.0
  3
_NONE
  1

  0
ENDBLK
  5
3
100
AcDbEntity
  8
0
100
AcDbBlockEnd
  0
BLOCK
  5
5
100
AcDbEntity
  8
0
100
AcDbBlockBegin
  2
_CLOSED
 70
     0
 10
0.0
 20
0.0
 30
0.0
  3
_CLOSED
  1

  0
LINE
  5
6
100
AcDbEntity
  8
0
  6
BYBLOCK
 62
     0
100
AcDbLine
 10
-1.0
 20
0.166667
 30
0.0
 11
0.0
 21
0.0
 31
0.0
  0
LINE
  5
7
100
AcDbEntity
  8
0
  6
BYBLOCK
 62
     0
100
AcDbLine
 10
0.0
 20
0.0
 30
0.0
 11
-1.0
 21
-0.166667
 31
0.0
  0
LINE
  5
8
100
AcDbEntity
  8
0
  6
BYBLOCK
 62
     0
100
AcDbLine
 10
-1.0
 20
0.166667
 30
0.0
 11
-1.0
 21
-0.166667
 31
0.0
  0
LINE
  5
9
100
AcDbEntity
  8
0
  6
BYBLOCK
 62
     0
100
AcDbLine
 10
0.0
 20
0.0
 30
0.0
 11
-1.0
 21
0.0
 31
0.0
  0
ENDBLK
  5
A
100
AcDbEntity
  8
0
100
AcDbBlockEnd
  0
BLOCK
  5
C
100
AcDbEntity
  8
0
100
AcDbBlockBegin
  2
_DOT
 70
     0
 10
0.0
 20
0.0
 30
0.0
  3
_DOT
  1

  0
POLYLINE
  5
D
100
AcDbEntity
  8
0
  6
BYBLOCK
 62
     0
100
AcDb2dPolyline
 66
     1
 10
0.0
 20
0.0
 30
0.0
 70
     1
 40
0.5
 41
0.5
  0
VERTEX
  5
E
100
AcDbEntity
  8
0
  6
BYBLOCK
 62
     0
100
AcDbVertex
100
AcDb2dVertex
 10
-0.25
 20
0.0
 30
0.0
 42
1.0
  0
VERTEX
  5
F
100
AcDbEntity
  8
0
  6
BYBLOCK
 62
     0
100
AcDbVertex
100
AcDb2dVertex
 10
0.25
 20
0.0
 30
0.0
 42
1.0
  0
SEQEND
  5
10
100
AcDbEntity
  8
0
  6
BYBLOCK
 62
     0
  0
LINE
  5
11
100
AcDbEntity
  8
0
  6
BYBLOCK
 62
     0
100
AcDbLine
 10
-0.5
 20
0.0
 30
0.0
 11
-1.0
 21
0.0
 31
0.0
  0
ENDBLK
  5
12
100
AcDbEntity
  8
0
100
AcDbBlockEnd
  0
BLOCK
  5
14
100
AcDbEntity
  8
0
100
AcDbBlockBegin
  2
_OPEN
 70
     0
 10
0.0
 20
0.0
 30
0.0
  3
_OPEN
  1

  0
LINE
  5
15
100
AcDbEntity
  8
0
  6
BYBLOCK
 62
     0
100
AcDbLine
 10
-1.0
 20
0.166667
 30
0.0
 11
0.0
 21
0.0
 31
0.0
  0
LINE
  5
16
100
AcDbEntity
  8
0
  6
BYBLOCK
 62
     0
100
AcDbLine
 10
0.0
 20
0.0
 30
0.0
 11
-1.0
 21
-0.166667
 31
0.0
  0
LINE
  5
17
100
AcDbEntity
  8
0
  6
BYBLOCK
 62
     0
100
AcDbLine
 10
0.0
 20
0.0
 30
0.0
 11
-1.0
 21
0.0
 31
0.0
  0
ENDBLK
  5
18
100
AcDbEntity
  8
0
100
AcDbBlockEnd
  0
BLOCK
  5
1A
100
AcDbEntity
  8
0
100
AcDbBlockBegin
  2
_ORIGIN
 70
     0
 10
0.0
 20
0.0
 30
0.0
  3
_ORIGIN
  1

  0
CIRCLE
  5
1B
100
AcDbEntity
  8
0
  6
BYBLOCK
 62
     0
100
AcDbCircle
 10
0.0
 20
0.0
 30
0.0
 40
0.5
  0
LINE
  5
1C
100
AcDbEntity
  8
0
  6
BYBLOCK
 62
     0
100
AcDbLine
 10
0.0
 20
0.0
 30
0.0
 11
-1.0
 21
0.0
 31
0.0
  0
ENDBLK
  5
1D
100
AcDbEntity
  8
0
100
AcDbBlockEnd
  0
BLOCK
  5
1F
100
AcDbEntity
  8
0
100
AcDbBlockBegin
  2
_OPEN30
 70
     0
 10
0.0
 20
0.0
 30
0.0
  3
_OPEN30
  1

  0
LINE
  5
20
100
AcDbEntity
  8
0
  6
BYBLOCK
 62
     0
100
AcDbLine
 10
-1.0
 20
0.267949
 30
0.0
 11
0.0
 21
0.0
 31
0.0
  0
LINE
  5
21
100
AcDbEntity
  8
0
  6
BYBLOCK
 62
     0
100
AcDbLine
 10
0.0
 20
0.0
 30
0.0
 11
-1.0
 21
-0.267949
 31
0.0
  0
LINE
  5
22
100
AcDbEntity
  8
0
  6
BYBLOCK
 62
     0
100
AcDbLine
 10
0.0
 20
0.0
 30
0.0
 11
-1.0
 21
0.0
 31
0.0
  0
ENDBLK
  5
23
100
AcDbEntity
  8
0
100
AcDbBlockEnd
  0
BLOCK
  5
25
100
AcDbEntity
  8
0
100
AcDbBlockBegin
  2
_BOXFILLED
 70
     0
 10
0.0
 20
0.0
 30
0.0
  3
_BOXFILLED
  1

  0
SOLID
  5
26
100
AcDbEntity
  8
0
  6
BYBLOCK
 62
     0
100
AcDbTrace
 10
-0.5
 20
0.5
 30
0.0
 11
0.5
 21
0.5
 31
0.0
 12
-0.5
 22
-0.5
 32
0.0
 13
0.5
 23
-0.5
 33
0.0
  0
LINE
  5
27
100
AcDbEntity
  8
0
  6
BYBLOCK
 62
     0
100
AcDbLine
 10
-0.5
 20
0.0
 30
0.0
 11
-1.0
 21
0.0
 31
0.0
  0
ENDBLK
  5
28
100
AcDbEntity
  8
0
100
AcDbBlockEnd
  0
BLOCK
  5
2A
100
AcDbEntity
  8
0
100
AcDbBlockBegin
  2
_BOXBLANK
 70
     0
 10
0.0
 20
0.0
 30
0.0
  3
_BOXBLANK
  1

  0
LINE
  5
2B
100
AcDbEntity
  8
0
  6
BYBLOCK
 62
     0
100
AcDbLine
 10
-0.5
 20
-0.5
 30
0.0
 11
0.5
 21
-0.5
 31
0.0
  0
LINE
  5
2C
100
AcDbEntity
  8
0
  6
BYBLOCK
 62
     0
100
AcDbLine
 10
0.5
 20
-0.5
 30
0.0
 11
0.5
 21
0.5
 31
0.0
  0
LINE
  5
2D
100
AcDbEntity
  8
0
  6
BYBLOCK
 62
     0
100
AcDbLine
 10
0.5
 20
0.5
 30
0.0
 11
-0.5
 21
0.5
 31
0.0
  0
LINE
  5
2E
100
AcDbEntity
  8
0
  6
BYBLOCK
 62
     0
100
AcDbLine
 10
-0.5
 20
0.5
 30
0.0
 11
-0.5
 21
-0.5
 31
0.0
  0
LINE
  5
2F
100
AcDbEntity
  8
0
  6
BYBLOCK
 62
     0
100
AcDbLine
 10
-0.5
 20
0.0
 30
0.0
 11
-1.0
 21
0.0
 31
0.0
  0
ENDBLK
  5
30
100
AcDbEntity
  8
0
100
AcDbBlockEnd
  0
BLOCK
  5
32
100
AcDbEntity
  8
0
100
AcDbBlockBegin
  2
_OBLIQUE
 70
     0
 10
0.0
 20
0.0
 30
0.0
  3
_OBLIQUE
  1

  0
LINE
  5
33
100
AcDbEntity
  8
0
  6
BYBLOCK
 62
     0
100
AcDbLine
 10
-0.5
 20
-0.5
 30
0.0
 11
0.5
 21
0.5
 31
0.0
  0
ENDBLK
  5
34
100
AcDbEntity
  8
0
100
AcDbBlockEnd
  0
BLOCK
  5
36
100
AcDbEntity
  8
0
100
AcDbBlockBegin
  2
_OPEN90
 70
     0
 10
0.0
 20
0.0
 30
0.0
  3
_OPEN90
  1

  0
LINE
  5
37
100
AcDbEntity
  8
0
  6
BYBLOCK
 62
     0
100
AcDbLine
 10
-0.5
 20
0.5
 30
0.0
 11
0.0
 21
0.0
 31
0.0
  0
LINE
  5
38
100
AcDbEntity
  8
0
  6
BYBLOCK
 62
     0
100
AcDbLine
 10
0.0
 20
0.0
 30
0.0
 11
-0.5
 21
-0.5
 31
0.0
  0
LINE
  5
39
100
AcDbEntity
  8
0
  6
BYBLOCK
 62
     0
100
AcDbLine
 10
0.0
 20
0.0
 30
0.0
 11
-1.0
 21
0.0
 31
0.0
  0
ENDBLK
  5
3A
100
AcDbEntity
  8
0
100
AcDbBlockEnd
  0
BLOCK
  5
3C
100
AcDbEntity
  8
0
100
AcDbBlockBegin
  2
_CLOSEDBLANK
 70
     0
 10
0.0
 20
0.0
 30
0.0
  3
_CLOSEDBLANK
  1

  0
LINE
  5
3D
100
AcDbEntity
  8
0
  6
BYBLOCK
 62
     0
100
AcDbLine
 10
-1.0
 20
0.1666666666666666
 30
0.0
 11
0.0
 21
0.0
 31
0.0
  0
LINE
  5
3E
100
AcDbEntity
  8
0
  6
BYBLOCK
 62
     0
100
AcDbLine
 10
0.0
 20
0.0
 30
0.0
 11
-1.0
 21
-0.1666666666666666
 31
0.0
  0
LINE
  5
3F
100
AcDbEntity
  8
0
  6
BYBLOCK
 62
     0
100
AcDbLine
 10
-1.0
 20
0.1666666666666666
 30
0.0
 11
-1.0
 21
-0.1666666666666666
 31
0.0
  0
ENDBLK
  5
40
100
AcDbEntity
  8
0
100
AcDbBlockEnd
  0
BLOCK
  5
42
100
AcDbEntity
  8
0
100
AcDbBlockBegin
  2
_DOTBLANK
 70
     0
 10
0.0
 20
0.0
 30
0.0
  3
_DOTBLANK
  1

  0
CIRCLE
  5
43
100
AcDbEntity
  8
0
  6
BYBLOCK
 62
     0
100
AcDbCircle
 10
0.0
 20
0.0
 30
0.0
 40
0.5
  0
LINE
  5
44
100
AcDbEntity
  8
0
  6
BYBLOCK
 62
     0
100
AcDbLine
 10
-0.5
 20
0.0
 30
0.0
 11
-1.0
 21
0.0
 31
0.0
  0
ENDBLK
  5
45
100
AcDbEntity
  8
0
100
AcDbBlockEnd
  0
BLOCK
  5
AE
100
AcDbEntity
  8
MAIN0
  6
CONTINUOUS
 62
3
100
AcDbBlockBegin
  2
*D0
 70
    65
 10
0.0
 20
0.0
 30
0.0
  0
LINE
  5
AF
100
AcDbEntity
  8
MAIN0
  6
BYBLOCK
 62
0
100
AcDbLine
 10
286.5682393278790
 20
236.8504081246861
 30
0.0000000000000000
 11
286.5682393278790
 21
262.6789122538522
 31
0.0000000000000000
  0
LINE
  5
B0
100
AcDbEntity
  8
MAIN0
  6
BYBLOCK
 62
0
100
AcDbLine
 10
284.5682393278790
 20
260.6789122538522
 30
0.0000000000000000
 11
268.5682393278790
 21
260.6789122538522
 31
0.0000000000000000
  0
INSERT
  5
B1
100
AcDbEntity
  8
MAIN0
  6
BYBLOCK
 62
0
100
AcDbBlockReference
  2
_OPEN
 10
286.5682393278790
 20
260.6789122538522
 30
0.0000000000000000
 41
2.000000000000000
 42
2.000000000000000
 43
2.000000000000000
 50
360.0000000000000
  0
INSERT
  5
B2
100
AcDbEntity
  8
MAIN0
  6
BYBLOCK
 62
0
100
AcDbBlockReference
  2
_OPEN
 10
266.5682393278790
 20
260.6789122538522
 30
0.0000000000000000
 41
2.000000000000000
 42
2.000000000000000
 43
2.000000000000000
 50
180.0000000000000
  0
LINE
  5
B3
100
AcDbEntity
  8
MAIN0
  6
BYBLOCK
 62
0
100
AcDbLine
 10
266.5682393278790
 20
236.8504081246861
 30
0.0000000000000000
 11
266.5682393278790
 21
262.6789122538522
 31
0.0000000000000000
  0
MTEXT
  5
B4
100
AcDbEntity
  8
MAIN0
  6
BYBLOCK
 62
0
100
AcDbMText
 10
276.5682393278790
 20
262.7289122061685
 30
0.0000000000000000
 40
3.099999904632568
 41
0.0000000000000000
 71
     5
 72
     1
  1
\A1;20
 11
1.000000000000000
 21
0.0000000000000000
 31
0.0000000000000000
  7
STANDARD
  0
ENDBLK
  5
B5
100
AcDbEntity
  8
MAIN0
  6
CONTINUOUS
 62
3
100
AcDbBlockEnd
  0
BLOCK
  5
B8
100
AcDbEntity
  8
MAIN0
  6
CONTINUOUS
 62
3
100
AcDbBlockBegin
  2
*D1
 70
    65
 10
0.0
 20
0.0
 30
0.0
  0
LINE
  5
B9
100
AcDbEntity
  8
MAIN0
  6
BYBLOCK
 62
0
100
AcDbLine
 10
295.0165420920346
 20
202.6600074164264
 30
0.0000000000000000
 11
258.1199365637236
 21
193.5693253470408
 31
0.0000000000000000
  0
INSERT
  5
BA
100
AcDbEntity
  8
MAIN0
  6
BYBLOCK
 62
0
100
AcDbBlockReference
  2
_OPEN
 10
296.9584686987888
 20
203.1384643674470
 30
0.0000000000000000
 41
2.000000000000000
 42
2.000000000000000
 43
2.000000000000000
 50
13.84100884818020
  0
INSERT
  5
BB
100
AcDbEntity
  8
MAIN0
  6
BYBLOCK
 62
0
100
AcDbBlockReference
  2
_OPEN
 10
256.1780099569694
 20
193.0908683960203
 30
0.0000000000000000
 41
2.000000000000000
 42
2.000000000000000
 43
2.000000000000000
 50
193.8410088481802
  0
MTEXT
  5
BC
100
AcDbEntity
  8
MAIN0
  6
BYBLOCK
 62
0
100
AcDbMText
 10
286.0817730727119
 20
202.5699409649874
 30
0.0000000000000000
 40
3.099999904632568
 41
0.0000000000000000
 71
     5
 72
     1
  1
\A1;\U+220542\H0.903226x;\U+00B10.2
 11
0.9709633033771301
 21
0.2392284755102771
 31
0.0000000000000000
  7
STANDARD
  0
ENDBLK
  5
BD
100
AcDbEntity
  8
MAIN0
  6
CONTINUOUS
 62
3
100
AcDbBlockEnd
  0
BLOCK
  5
EF
100
AcDbEntity
  8
MAIN0
  6
CONTINUOUS
 62
3
100
AcDbBlockBegin
  2
*D2
 70
    65
 10
0.0
 20
0.0
 30
0.0
  0
LINE
  5
F0
100
AcDbEntity
  8
MAIN0
  6
BYBLOCK
 62
0
100
AcDbLine
 10
314.5682393278792
 20
93.72455687664609
 30
0.0000000000000000
 11
238.5682393278793
 21
93.72455687664609
 31
0.0000000000000000
  0
INSERT
  5
F1
100
AcDbEntity
  8
MAIN0
  6
BYBLOCK
 62
0
100
AcDbBlockReference
  2
_OPEN
 10
316.5682393278792
 20
93.72455687664609
 30
0.0000000000000000
 41
2.000000000000000
 42
2.000000000000000
 43
2.000000000000000
 50
360.0000000000000
  0
INSERT
  5
F2
100
AcDbEntity
  8
MAIN0
  6
BYBLOCK
 62
0
100
AcDbBlockReference
  2
_OPEN
 10
236.5682393278793
 20
93.72455687664609
 30
0.0000000000000000
 41
2.000000000000000
 42
2.000000000000000
 43
2.000000000000000
 50
180.0000000000000
  0
MTEXT
  5
F3
100
AcDbEntity
  8
MAIN0
  6
BYBLOCK
 62
0
100
AcDbMText
 10
276.5682393278792
 20
95.77455682896238
 30
0.0000000000000000
 40
3.099999904632568
 41
0.0000000000000000
 71
     5
 72
     1
  1
\A1;80
 11
1.000000000000000
 21
0.0000000000000000
 31
0.0000000000000000
  7
STANDARD
  0
ENDBLK
  5
F4
100
AcDbEntity
  8
MAIN0
  6
CONTINUOUS
 62
3
100
AcDbBlockEnd
  0
BLOCK
  5
F6
100
AcDbEntity
  8
MAIN0
  6
CONTINUOUS
 62
3
100
AcDbBlockBegin
  2
*D3
 70
    65
 10
0.0
 20
0.0
 30
0.0
  0
LINE
  5
F7
100
AcDbEntity
  8
MAIN0
  6
BYBLOCK
 62
0
100
AcDbLine
 10
317.3682393398001
 20
122.6146663817339
 30
0.0000000000000000
 11
377.1211565319995
 21
122.6146663817339
 31
0.0000000000000000
  0
LINE
  5
F8
100
AcDbEntity
  8
MAIN0
  6
BYBLOCK
 62
0
100
AcDbLine
 10
375.1211565319995
 20
124.6146663817339
 30
0.0000000000000000
 11
375.1211565319995
 21
196.1146663817336
 31
0.0000000000000000
  0
INSERT
  5
F9
100
AcDbEntity
  8
MAIN0
  6
BYBLOCK
 62
0
100
AcDbBlockReference
  2
_OPEN
 10
375.1211565319995
 20
122.6146663817339
 30
0.0000000000000000
 41
2.000000000000000
 42
2.000000000000000
 43
2.000000000000000
 50
270.0000000000000
  0
INSERT
  5
FA
100
AcDbEntity
  8
MAIN0
  6
BYBLOCK
 62
0
100
AcDbBlockReference
  2
_OPEN
 10
375.1211565319995
 20
198.1146663817336
 30
0.0000000000000000
 41
2.000000000000000
 42
2.000000000000000
 43
2.000000000000000
 50
90.00000000000000
  0
LINE
  5
FB
100
AcDbEntity
  8
MAIN0
  6
BYBLOCK
 62
0
100
AcDbLine
 10
356.9402059660325
 20
198.1146663817336
 30
0.0000000000000000
 11
377.1211565319995
 21
198.1146663817336
 31
0.0000000000000000
  0
MTEXT
  5
FC
100
AcDbEntity
  8
MAIN0
  6
BYBLOCK
 62
0
100
AcDbMText
 10
373.0711565796833
 20
160.3646663817337
 30
0.0000000000000000
 40
3.099999904632568
 41
0.0000000000000000
 71
     5
 72
     1
  1
\A1;75.5
 11
6.123233995736766e-017
 21
1.000000000000000
 31
0.0000000000000000
  7
STANDARD
  0
ENDBLK
  5
FD
100
AcDbEntity
  8
MAIN0
  6
CONTINUOUS
 62
3
100
AcDbBlockEnd
  0
BLOCK
  5
FF
100
AcDbEntity
  8
MAIN0
  6
CONTINUOUS
 62
3
100
AcDbBlockBegin
  2
*D4
 70
    65
 10
0.0
 20
0.0
 30
0.0
  0
LINE
  5
100
100
AcDbEntity
  8
MAIN0
  6
BYBLOCK
 62
0
100
AcDbLine
 10
317.3682393398001
 20
87.61466638173388
 30
0.0000000000000000
 11
385.5219450648495
 21
87.61466638173388
 31
0.0000000000000000
  0
LINE
  5
101
100
AcDbEntity
  8
MAIN0
  6
BYBLOCK
 62
0
100
AcDbLine
 10
383.5219450648495
 20
89.61466638173388
 30
0.0000000000000000
 11
383.5219450648495
 21
196.1146663817336
 31
0.0000000000000000
  0
INSERT
  5
102
100
AcDbEntity
  8
MAIN0
  6
BYBLOCK
 62
0
100
AcDbBlockReference
  2
_OPEN
 10
383.5219450648495
 20
87.61466638173388
 30
0.0000000000000000
 41
2.000000000000000
 42
2.000000000000000
 43
2.000000000000000
 50
270.0000000000000
  0
INSERT
  5
103
100
AcDbEntity
  8
MAIN0
  6
BYBLOCK
 62
0
100
AcDbBlockReference
  2
_OPEN
 10
383.5219450648495
 20
198.1146663817336
 30
0.0000000000000000
 41
2.000000000000000
 42
2.000000000000000
 43
2.000000000000000
 50
90.00000000000000
  0
LINE
  5
104
100
AcDbEntity
  8
MAIN0
  6
BYBLOCK
 62
0
100
AcDbLine
 10
356.9402059660325
 20
198.1146663817336
 30
0.0000000000000000
 11
385.5219450648495
 21
198.1146663817336
 31
0.0000000000000000
  0
MTEXT
  5
105
100
AcDbEntity
  8
MAIN0
  6
BYBLOCK
 62
0
100
AcDbMText
 10
381.4719451125332
 20
142.8646663817337
 30
0.0000000000000000
 40
3.099999904632568
 41
0.0000000000000000
 71
     5
 72
     1
  1
\A1;（110.5）
 11
6.123233995736766e-017
 21
1.000000000000000
 31
0.0000000000000000
  7
KNJYOKO
  0
ENDBLK
  5
106
100
AcDbEntity
  8
MAIN0
  6
CONTINUOUS
 62
3
100
AcDbBlockEnd
  0
BLOCK
  5
109
100
AcDbEntity
  8
MAIN0
  6
CONTINUOUS
 62
3
100
AcDbBlockBegin
  2
*D5
 70
    65
 10
0.0
 20
0.0
 30
0.0
  0
LINE
  5
10A
100
AcDbEntity
  8
MAIN0
  6
BYBLOCK
 62
0
100
AcDbLine
 10
300.0682393278788
 20
116.9614014857210
 30
0.0000000000000000
 11
300.0682393278788
 21
100.5193309320466
 31
0.0000000000000000
  0
LINE
  5
10B
100
AcDbEntity
  8
MAIN0
  6
BYBLOCK
 62
0
100
AcDbLine
 10
298.0682393278788
 20
102.5193309320466
 30
0.0000000000000000
 11
255.0682393278792
 21
102.5193309320466
 31
0.0000000000000000
  0
INSERT
  5
10C
100
AcDbEntity
  8
MAIN0
  6
BYBLOCK
 62
0
100
AcDbBlockReference
  2
_OPEN
 10
300.0682393278788
 20
102.5193309320466
 30
0.0000000000000000
 41
2.000000000000000
 42
2.000000000000000
 43
2.000000000000000
 50
360.0000000000000
  0
INSERT
  5
10D
100
AcDbEntity
  8
MAIN0
  6
BYBLOCK
 62
0
100
AcDbBlockReference
  2
_OPEN
 10
253.0682393278792
 20
102.5193309320466
 30
0.0000000000000000
 41
2.000000000000000
 42
2.000000000000000
 43
2.000000000000000
 50
180.0000000000000
  0
LINE
  5
10E
100
AcDbEntity
  8
MAIN0
  6
BYBLOCK
 62
0
100
AcDbLine
 10
253.0682393278792
 20
116.9614014857208
 30
0.0000000000000000
 11
253.0682393278792
 21
100.5193309320466
 31
0.0000000000000000
  0
MTEXT
  5
10F
100
AcDbEntity
  8
MAIN0
  6
BYBLOCK
 62
0
100
AcDbMText
 10
276.5682393278790
 20
104.5693308843628
 30
0.0000000000000000
 40
3.099999904632568
 41
0.0000000000000000
 71
     5
 72
     1
  1
\A1;47
 11
1.000000000000000
 21
0.0000000000000000
 31
0.0000000000000000
  7
STANDARD
  0
ENDBLK
  5
110
100
AcDbEntity
  8
MAIN0
  6
CONTINUOUS
 62
3
100
AcDbBlockEnd
  0
BLOCK
  5
112
100
AcDbEntity
  8
MAIN0
  6
CONTINUOUS
 62
3
100
AcDbBlockBegin
  2
*D6
 70
    65
 10
0.0
 20
0.0
 30
0.0
  0
LINE
  5
113
100
AcDbEntity
  8
MAIN0
  6
BYBLOCK
 62
0
100
AcDbLine
 10
315.2945808800873
 20
247.8064209289591
 30
0.0000000000000000
 11
237.8418977756707
 21
148.4229118345081
 31
0.0000000000000000
  0
INSERT
  5
114
100
AcDbEntity
  8
MAIN0
  6
BYBLOCK
 62
0
100
AcDbBlockReference
  2
_OPEN
 10
316.5239885484114
 20
249.3839369463314
 30
0.0000000000000000
 41
2.000000000000000
 42
2.000000000000000
 43
2.000000000000000
 50
52.06959649573133
  0
INSERT
  5
115
100
AcDbEntity
  8
MAIN0
  6
BYBLOCK
 62
0
100
AcDbBlockReference
  2
_OPEN
 10
236.6124901073466
 20
146.8453958171359
 30
0.0000000000000000
 41
2.000000000000000
 42
2.000000000000000
 43
2.000000000000000
 50
232.0695964957313
  0
MTEXT
  5
116
100
AcDbEntity
  8
MAIN0
  6
BYBLOCK
 62
0
100
AcDbMText
 10
303.7355576485164
 20
236.3093847931616
 30
0.0000000000000000
 40
3.099999904632568
 41
0.0000000000000000
 71
     5
 72
     1
  1
\A1;\U+2205130\H0.903226x;\U+00B10.2
 11
0.6147038341620366
 21
0.7887580086861189
 31
0.0000000000000000
  7
STANDARD
  0
ENDBLK
  5
117
100
AcDbEntity
  8
MAIN0
  6
CONTINUOUS
 62
3
100
AcDbBlockEnd
  0
BLOCK
  5
12F
100
AcDbEntity
  8
MAIN0
  6
CONTINUOUS
 62
3
100
AcDbBlockBegin
  2
*D7
 70
    65
 10
0.0
 20
0.0
 30
0.0
  0
LINE
  5
130
100
AcDbEntity
  8
MAIN0
  6
BYBLOCK
 62
0
100
AcDbLine
 10
276.5682393278790
 20
198.1146663817337
 30
0.0000000000000000
 11
271.4512621745190
 21
166.5264321036040
 31
0.0000000000000000
  0
INSERT
  5
131
100
AcDbEntity
  8
MAIN0
  6
BYBLOCK
 62
0
100
AcDbBlockReference
  2
_OPEN
 10
271.1314511024337
 20
164.5521674612190
 30
0.0000000000000000
 41
2.000000000000000
 42
2.000000000000000
 43
2.000000000000000
 50
260.7985867599274
  0
MTEXT
  5
132
100
AcDbEntity
  8
MAIN0
  6
BYBLOCK
 62
0
100
AcDbMText
 10
273.0747616483401
 20
189.3687229132841
 30
0.0000000000000000
 40
3.099999904632568
 41
0.0000000000000000
 71
     5
 72
     1
  1
\A1;Ｒ34
 11
0.1599055360426570
 21
0.9871323211925089
 31
0.0000000000000000
  7
KNJYOKO
  0
ENDBLK
  5
133
100
AcDbEntity
  8
MAIN0
  6
CONTINUOUS
 62
3
100
AcDbBlockEnd
  0
BLOCK
  5
136
100
AcDbEntity
  8
MAIN0
  6
CONTINUOUS
 62
3
100
AcDbBlockBegin
  2
*D8
 70
    65
 10
0.0
 20
0.0
 30
0.0
  0
LINE
  5
137
100
AcDbEntity
  8
MAIN0
  6
BYBLOCK
 62
0
100
AcDbLine
 10
293.0682393278790
 20
154.8979975403442
 30
0.0000000000000000
 11
293.0682393278790
 21
105.8726691364964
 31
0.0000000000000000
  0
LINE
  5
138
100
AcDbEntity
  8
MAIN0
  6
BYBLOCK
 62
0
100
AcDbLine
 10
291.0682393278790
 20
107.8726691364964
 30
0.0000000000000000
 11
262.0682393278790
 21
107.8726691364964
 31
0.0000000000000000
  0
INSERT
  5
139
100
AcDbEntity
  8
MAIN0
  6
BYBLOCK
 62
0
100
AcDbBlockReference
  2
_OPEN
 10
293.0682393278790
 20
107.8726691364964
 30
0.0000000000000000
 41
2.000000000000000
 42
2.000000000000000
 43
2.000000000000000
 50
360.0000000000000
  0
INSERT
  5
13A
100
AcDbEntity
  8
MAIN0
  6
BYBLOCK
 62
0
100
AcDbBlockReference
  2
_OPEN
 10
260.0682393278790
 20
107.8726691364964
 30
0.0000000000000000
 41
2.000000000000000
 42
2.000000000000000
 43
2.000000000000000
 50
180.0000000000000
  0
LINE
  5
13B
100
AcDbEntity
  8
MAIN0
  6
BYBLOCK
 62
0
100
AcDbLine
 10
260.0682393278790
 20
159.4041408017810
 30
0.0000000000000000
 11
260.0682393278790
 21
105.8726691364964
 31
0.0000000000000000
  0
MTEXT
  5
13C
100
AcDbEntity
  8
MAIN0
  6
BYBLOCK
 62
0
100
AcDbMText
 10
276.5682393278790
 20
109.9226690888127
 30
0.0000000000000000
 40
3.099999904632568
 41
0.0000000000000000
 71
     5
 72
     1
  1
\A1;33
 11
1.000000000000000
 21
0.0000000000000000
 31
0.0000000000000000
  7
STANDARD
  0
ENDBLK
  5
13D
100
AcDbEntity
  8
MAIN0
  6
CONTINUOUS
 62
3
100
AcDbBlockEnd
  0
BLOCK
  5
145
100
AcDbEntity
  8
MAIN0
  6
CONTINUOUS
 62
3
100
AcDbBlockBegin
  2
*D9
 70
    65
 10
0.0
 20
0.0
 30
0.0
  0
LINE
  5
146
100
AcDbEntity
  8
MAIN0
  6
BYBLOCK
 62
0
100
AcDbLine
 10
343.5764036010770
 20
159.4274847007002
 30
0.0000000000000000
 11
346.8302346506358
 21
157.5488844683398
 31
0.0000000000000000
  0
ARC
  5
147
100
AcDbEntity
  8
MAIN0
  6
BYBLOCK
 62
0
100
AcDbCircle
 10
276.5682393278792
 20
198.1146663817336
 30
0.0000000000000000
 40
79.13156382678758
100
AcDbArc
 50
331.4481144246940
 51
358.5518855753060
  0
INSERT
  5
148
100
AcDbEntity
  8
MAIN0
  6
BYBLOCK
 62
0
100
AcDbBlockReference
  2
_OPEN
 10
345.0981838430670
 20
158.5488844683399
 30
0.0000000000000000
 41
2.000000000000000
 42
2.000000000000000
 43
2.000000000000000
 50
240.0000000000000
  0
INSERT
  5
149
100
AcDbEntity
  8
MAIN0
  6
BYBLOCK
 62
0
100
AcDbBlockReference
  2
_OPEN
 10
355.6998031546667
 20
198.1146663817336
 30
0.0000000000000000
 41
2.000000000000000
 42
2.000000000000000
 43
2.000000000000000
 50
90.00000000000000
  0
MTEXT
  5
14A
100
AcDbEntity
  8
MAIN0
  6
BYBLOCK
 62
0
100
AcDbMText
 10
351.0233126233007
 20
178.1644896931027
 30
0.0000000000000000
 40
3.099999904632568
 41
0.0000000000000000
 71
     5
 72
     1
  1
\A1;30\U+00B0\H0.903226x;\U+00B10.3\U+00B0
 11
0.2588190451025205
 21
0.9659258262890683
 31
0.0000000000000000
  7
STANDARD
  0
ENDBLK
  5
14B
100
AcDbEntity
  8
MAIN0
  6
CONTINUOUS
 62
3
100
AcDbBlockEnd
  0
BLOCK
  5
14D
100
AcDbEntity
  8
MAIN0
  6
CONTINUOUS
 62
3
100
AcDbBlockBegin
  2
*D10
 70
    65
 10
0.0
 20
0.0
 30
0.0
  0
LINE
  5
14E
100
AcDbEntity
  8
MAIN0
  6
BYBLOCK
 62
0
100
AcDbLine
 10
330.8740401314351
 20
252.4204671852897
 30
0.0000000000000000
 11
333.9369182780698
 21
255.4833453319244
 31
0.0000000000000000
  0
ARC
  5
14F
100
AcDbEntity
  8
MAIN0
  6
BYBLOCK
 62
0
100
AcDbCircle
 10
276.5682393278792
 20
198.1146663817336
 30
0.0000000000000000
 40
79.13156382678758
100
AcDbArc
 50
1.448114424693995
 51
43.55188557530614
  0
INSERT
  5
150
100
AcDbEntity
  8
MAIN0
  6
BYBLOCK
 62
0
100
AcDbBlockReference
  2
_OPEN
 10
355.6998031546667
 20
198.1146663817336
 30
0.0000000000000000
 41
2.000000000000000
 42
2.000000000000000
 43
2.000000000000000
 50
270.0000000000000
  0
INSERT
  5
151
100
AcDbEntity
  8
MAIN0
  6
BYBLOCK
 62
0
100
AcDbBlockReference
  2
_OPEN
 10
332.5227047156967
 20
254.0691317695514
 30
0.0000000000000000
 41
2.000000000000000
 42
2.000000000000000
 43
2.000000000000000
 50
135.0000000000001
  0
MTEXT
  5
152
100
AcDbEntity
  8
MAIN0
  6
BYBLOCK
 62
0
100
AcDbMText
 10
347.7823185254647
 20
227.6125038172853
 30
0.0000000000000000
 40
3.099999904632568
 41
0.0000000000000000
 71
     5
 72
     1
  1
\A1;45\U+00B0
 11
-0.3826834323650907
 21
0.9238795325112864
 31
0.0000000000000000
  7
STANDARD
  0
ENDBLK
  5
153
100
AcDbEntity
  8
MAIN0
  6
CONTINUOUS
 62
3
100
AcDbBlockEnd
  0
BLOCK
  5
155
100
AcDbEntity
  8
MAIN0
  6
CONTINUOUS
 62
3
100
AcDbBlockBegin
  2
*D11
 70
    65
 10
0.0
 20
0.0
 30
0.0
  0
LINE
  5
156
100
AcDbEntity
  8
MAIN0
  6
BYBLOCK
 62
0
100
AcDbLine
 10
330.8740401314351
 20
252.4204671852897
 30
0.0000000000000000
 11
333.9369182780698
 21
255.4833453319244
 31
0.0000000000000000
  0
LINE
  5
157
100
AcDbEntity
  8
MAIN0
  6
BYBLOCK
 62
0
100
AcDbLine
 10
312.6134184077222
 20
260.5467479164573
 30
0.0000000000000000
 11
317.1340212410211
 21
268.3766617046357
 31
0.0000000000000000
  0
ARC
  5
158
100
AcDbEntity
  8
MAIN0
  6
BYBLOCK
 62
0
100
AcDbCircle
 10
276.5682393278792
 20
198.1146663817336
 30
0.0000000000000000
 40
79.13156382678758
100
AcDbArc
 50
46.44811442469413
 51
58.55188557551136
  0
INSERT
  5
159
100
AcDbEntity
  8
MAIN0
  6
BYBLOCK
 62
0
100
AcDbBlockReference
  2
_OPEN
 10
332.5227047156967
 20
254.0691317695514
 30
0.0000000000000000
 41
2.000000000000000
 42
2.000000000000000
 43
2.000000000000000
 50
315.0000000000001
  0
INSERT
  5
15A
100
AcDbEntity
  8
MAIN0
  6
BYBLOCK
 62
0
100
AcDbBlockReference
  2
_OPEN
 10
316.1340212410273
 20
266.6446108970632
 30
0.0000000000000000
 41
2.000000000000000
 42
2.000000000000000
 43
2.000000000000000
 50
150.0000000002054
  0
MTEXT
  5
15B
100
AcDbEntity
  8
MAIN0
  6
BYBLOCK
 62
0
100
AcDbMText
 10
325.9884441030936
 20
262.5203311760401
 30
0.0000000000000000
 40
3.099999904632568
 41
0.0000000000000000
 71
     5
 72
     1
  1
\A1;15\U+00B0
 11
0.7933533402923266
 21
-0.6087614290072982
 31
0.0000000000000000
  7
STANDARD
  0
ENDBLK
  5
15C
100
AcDbEntity
  8
MAIN0
  6
CONTINUOUS
 62
3
100
AcDbBlockEnd
  0
BLOCK
  5
15E
100
AcDbEntity
  8
MAIN0
  6
CONTINUOUS
 62
3
100
AcDbBlockBegin
  2
*D12
 70
    65
 10
0.0
 20
0.0
 30
0.0
  0
LINE
  5
15F
100
AcDbEntity
  8
MAIN0
  6
BYBLOCK
 62
0
100
AcDbLine
 10
312.6134184077222
 20
260.5467479164573
 30
0.0000000000000000
 11
317.1340212410211
 21
268.3766617046357
 31
0.0000000000000000
  0
LINE
  5
160
100
AcDbEntity
  8
MAIN0
  6
BYBLOCK
 62
0
100
AcDbLine
 10
276.5682393278790
 20
280.3284025366400
 30
0.0000000000000000
 11
276.5682393278790
 21
279.2462302085212
 31
0.0000000000000000
  0
ARC
  5
161
100
AcDbEntity
  8
MAIN0
  6
BYBLOCK
 62
0
100
AcDbCircle
 10
276.5682393278792
 20
198.1146663817336
 30
0.0000000000000000
 40
79.13156382678758
100
AcDbArc
 50
61.44811442489935
 51
88.55188557530613
  0
INSERT
  5
162
100
AcDbEntity
  8
MAIN0
  6
BYBLOCK
 62
0
100
AcDbBlockReference
  2
_OPEN
 10
316.1340212410273
 20
266.6446108970632
 30
0.0000000000000000
 41
2.000000000000000
 42
2.000000000000000
 43
2.000000000000000
 50
330.0000000002054
  0
INSERT
  5
163
100
AcDbEntity
  8
MAIN0
  6
BYBLOCK
 62
0
100
AcDbBlockReference
  2
_OPEN
 10
276.5682393278790
 20
277.2462302085212
 30
0.0000000000000000
 41
2.000000000000000
 42
2.000000000000000
 43
2.000000000000000
 50
180.0000000000001
  0
MTEXT
  5
164
100
AcDbEntity
  8
MAIN0
  6
BYBLOCK
 62
0
100
AcDbMText
 10
292.5159509494525
 20
277.7143949720740
 30
0.0000000000000000
 40
3.099999904632568
 41
0.0000000000000000
 71
     5
 72
     1
  1
\A1;30\U+00B0
 11
0.9805148470277348
 21
-0.1964449916851475
 31
0.0000000000000000
  7
STANDARD
  0
ENDBLK
  5
165
100
AcDbEntity
  8
MAIN0
  6
CONTINUOUS
 62
3
100
AcDbBlockEnd
  0
BLOCK
  5
167
100
AcDbEntity
  8
MAIN0
  6
CONTINUOUS
 62
3
100
AcDbBlockBegin
  2
*D13
 70
    65
 10
0.0
 20
0.0
 30
0.0
  0
LINE
  5
168
100
AcDbEntity
  8
MAIN0
  6
BYBLOCK
 62
0
100
AcDbLine
 10
276.5682393278790
 20
280.3284025366400
 30
0.0000000000000000
 11
276.5682393278790
 21
279.2462302085212
 31
0.0000000000000000
  0
LINE
  5
169
100
AcDbEntity
  8
MAIN0
  6
BYBLOCK
 62
0
100
AcDbLine
 10
222.2624385243228
 20
252.4204671852899
 30
0.0000000000000000
 11
219.1995603776885
 21
255.4833453319243
 31
0.0000000000000000
  0
ARC
  5
16A
100
AcDbEntity
  8
MAIN0
  6
BYBLOCK
 62
0
100
AcDbCircle
 10
276.5682393278792
 20
198.1146663817336
 30
0.0000000000000000
 40
79.13156382678758
100
AcDbArc
 50
91.44811442469411
 51
133.5518855753060
  0
INSERT
  5
16B
100
AcDbEntity
  8
MAIN0
  6
BYBLOCK
 62
0
100
AcDbBlockReference
  2
_OPEN
 10
276.5682393278790
 20
277.2462302085212
 30
0.0000000000000000
 41
2.000000000000000
 42
2.000000000000000
 43
2.000000000000000
 50
1.136868377216160e-013
  0
INSERT
  5
16C
100
AcDbEntity
  8
MAIN0
  6
BYBLOCK
 62
0
100
AcDbBlockReference
  2
_OPEN
 10
220.6137739400616
 20
254.0691317695512
 30
0.0000000000000000
 41
2.000000000000000
 42
2.000000000000000
 43
2.000000000000000
 50
225.0000000000000
  0
MTEXT
  5
16D
100
AcDbEntity
  8
MAIN0
  6
BYBLOCK
 62
0
100
AcDbMText
 10
245.5013998561262
 20
273.1166515745073
 30
0.0000000000000000
 40
3.099999904632568
 41
0.0000000000000000
 71
     5
 72
     1
  1
\A1;45\U+00B0
 11
0.9238795325112863
 21
0.3826834323650908
 31
0.0000000000000000
  7
STANDARD
  0
ENDBLK
  5
16E
100
AcDbEntity
  8
MAIN0
  6
CONTINUOUS
 62
3
100
AcDbBlockEnd
  0
BLOCK
  5
170
100
AcDbEntity
  8
MAIN0
  6
CONTINUOUS
 62
3
100
AcDbBlockBegin
  2
*D14
 70
    65
 10
0.0
 20
0.0
 30
0.0
  0
LINE
  5
171
100
AcDbEntity
  8
MAIN0
  6
BYBLOCK
 62
0
100
AcDbLine
 10
222.2624385243228
 20
252.4204671852899
 30
0.0000000000000000
 11
219.1995603776885
 21
255.4833453319243
 31
0.0000000000000000
  0
LINE
  5
172
100
AcDbEntity
  8
MAIN0
  6
BYBLOCK
 62
0
100
AcDbLine
 10
240.0562430826373
 20
207.8980262896940
 30
0.0000000000000000
 11
198.2011665003649
 21
219.1130602590562
 31
0.0000000000000000
  0
ARC
  5
173
100
AcDbEntity
  8
MAIN0
  6
BYBLOCK
 62
0
100
AcDbCircle
 10
276.5682393278792
 20
198.1146663817336
 30
0.0000000000000000
 40
79.13156382678758
100
AcDbArc
 50
136.4481144246940
 51
163.5518855753066
  0
INSERT
  5
174
100
AcDbEntity
  8
MAIN0
  6
BYBLOCK
 62
0
100
AcDbBlockReference
  2
_OPEN
 10
220.6137739400616
 20
254.0691317695512
 30
0.0000000000000000
 41
2.000000000000000
 42
2.000000000000000
 43
2.000000000000000
 50
45.00000000000000
  0
INSERT
  5
175
100
AcDbEntity
  8
MAIN0
  6
BYBLOCK
 62
0
100
AcDbBlockReference
  2
_OPEN
 10
200.1330181529430
 20
218.5954221688512
 30
0.0000000000000000
 41
2.000000000000000
 42
2.000000000000000
 43
2.000000000000000
 50
255.0000000000005
  0
MTEXT
  5
176
100
AcDbEntity
  8
MAIN0
  6
BYBLOCK
 62
0
100
AcDbMText
 10
206.2629427762284
 20
238.7054482712852
 30
0.0000000000000000
 40
3.099999904632568
 41
0.0000000000000000
 71
     5
 72
     1
  1
\A1;30\U+00B0
 11
0.4999999999999957
 21
0.8660254037844412
 31
0.0000000000000000
  7
STANDARD
  0
ENDBLK
  5
177
100
AcDbEntity
  8
MAIN0
  6
CONTINUOUS
 62
3
100
AcDbBlockEnd
  0
BLOCK
  5
185
100
AcDbEntity
  8
MAIN0
  6
CONTINUOUS
 62
3
100
AcDbBlockBegin
  2
*D15
 70
    65
 10
0.0
 20
0.0
 30
0.0
  0
LINE
  5
186
100
AcDbEntity
  8
MAIN0
  6
BYBLOCK
 62
0
100
AcDbLine
 10
306.4295401943638
 20
135.1146663817335
 30
0.0000000000000000
 11
368.3385192470350
 21
135.1146663817335
 31
0.0000000000000000
  0
LINE
  5
187
100
AcDbEntity
  8
MAIN0
  6
BYBLOCK
 62
0
100
AcDbLine
 10
366.3385192470350
 20
137.1146663817335
 30
0.0000000000000000
 11
366.3385192470350
 21
196.1146663817336
 31
0.0000000000000000
  0
INSERT
  5
188
100
AcDbEntity
  8
MAIN0
  6
BYBLOCK
 62
0
100
AcDbBlockReference
  2
_OPEN
 10
366.3385192470350
 20
135.1146663817335
 30
0.0000000000000000
 41
2.000000000000000
 42
2.000000000000000
 43
2.000000000000000
 50
270.0000000000000
  0
INSERT
  5
189
100
AcDbEntity
  8
MAIN0
  6
BYBLOCK
 62
0
100
AcDbBlockReference
  2
_OPEN
 10
366.3385192470350
 20
198.1146663817336
 30
0.0000000000000000
 41
2.000000000000000
 42
2.000000000000000
 43
2.000000000000000
 50
90.00000000000000
  0
LINE
  5
18A
100
AcDbEntity
  8
MAIN0
  6
BYBLOCK
 62
0
100
AcDbLine
 10
356.9402059660325
 20
198.1146663817336
 30
0.0000000000000000
 11
368.3385192470350
 21
198.1146663817336
 31
0.0000000000000000
  0
MTEXT
  5
18B
100
AcDbEntity
  8
MAIN0
  6
BYBLOCK
 62
0
100
AcDbMText
 10
364.2885192947188
 20
166.6146663817336
 30
0.0000000000000000
 40
3.099999904632568
 41
0.0000000000000000
 71
     5
 72
     1
  1
\A1;63
 11
6.123233995736766e-017
 21
1.000000000000000
 31
0.0000000000000000
  7
STANDARD
  0
ENDBLK
  5
18C
100
AcDbEntity
  8
MAIN0
  6
CONTINUOUS
 62
3
100
AcDbBlockEnd
  0
BLOCK
  5
195
100
AcDbEntity
  8
MAIN0
  6
CONTINUOUS
 62
3
100
AcDbBlockBegin
  2
*D16
 70
    65
 10
0.0
 20
0.0
 30
0.0
  0
LINE
  5
196
100
AcDbEntity
  8
MAIN0
  6
BYBLOCK
 62
0
100
AcDbLine
 10
218.8378899723157
 20
223.3378058232189
 30
0.0000000000000000
 11
334.2985886834424
 21
172.8915269402484
 31
0.0000000000000000
  0
INSERT
  5
197
100
AcDbEntity
  8
MAIN0
  6
BYBLOCK
 62
0
100
AcDbBlockReference
  2
_OPEN
 10
217.0051804689645
 20
224.1385404086629
 30
0.0000000000000000
 41
2.000000000000000
 42
2.000000000000000
 43
2.000000000000000
 50
156.3988582742253
  0
INSERT
  5
198
100
AcDbEntity
  8
MAIN0
  6
BYBLOCK
 62
0
100
AcDbBlockReference
  2
_OPEN
 10
336.1312981867936
 20
172.0907923548044
 30
0.0000000000000000
 41
2.000000000000000
 42
2.000000000000000
 43
2.000000000000000
 50
336.3988582742253
  0
LINE
  5
199
100
AcDbEntity
  8
MAIN0
  6
BYBLOCK
 62
0
100
AcDbLine
 10
336.1312981867936
 20
172.0907923548044
 30
0.0000000000000000
 11
364.0793648076591
 21
159.8799190556273
 31
0.0000000000000000
  0
MTEXT
  5
19A
100
AcDbEntity
  8
MAIN0
  6
BYBLOCK
 62
0
100
AcDbMText
 10
357.9129127665698
 20
164.8112468557443
 30
0.0000000000000000
 40
3.099999904632568
 41
0.0000000000000000
 71
     5
 72
     1
  1
\A1;\U+2205130\H0.903226x;\U+00B10.2
 11
0.9163547516756081
 21
-0.4003672927219888
 31
0.0000000000000000
  7
STANDARD
  0
ENDBLK
  5
19B
100
AcDbEntity
  8
MAIN0
  6
CONTINUOUS
 62
3
100
AcDbBlockEnd
  0
BLOCK
  5
19D
100
AcDbEntity
  8
MAIN0
  6
CONTINUOUS
 62
3
100
AcDbBlockBegin
  2
D17
 70
    64
 10
0.0
 20
0.0
 30
0.0
  0
LINE
  5
19E
100
AcDbEntity
  8
MAIN0
  6
BYBLOCK
 62
0
100
AcDbLine
 10
334.3182600737650
 20
160.8320772919446
 30
0.0000000000000000
 11
342.1302713807298
 21
143.1678721027118
 31
0.0000000000000000
  0
LINE
  5
19F
100
AcDbEntity
  8
MAIN0
  6
BYBLOCK
 62
0
100
AcDbLine
 10
335.6759180226662
 20
159.2456457862074
 30
0.0000000000000000
 11
334.3182600737650
 21
160.8320772919446
 31
0.0000000000000000
  0
LINE
  5
1A0
100
AcDbEntity
  8
MAIN0
  6
BYBLOCK
 62
0
100
AcDbLine
 10
334.3182600737650
 20
160.8320772919446
 30
0.0000000000000000
 11
334.5784525330884
 21
158.7602906444537
 31
0.0000000000000000
  0
LINE
  5
1A1
100
AcDbEntity
  8
MAIN0
  6
BYBLOCK
 62
0
100
AcDbLine
 10
342.1302713807299
 20
143.1678721027119
 30
0.0000000000000000
 11
359.3302713911607
 21
143.1678721027119
 31
0.0000000000000000
  0
MTEXT
  5
1A2
100
AcDbEntity
  8
MAIN0
  6
BYBLOCK
 62
0
100
AcDbMText
 10
350.7302714585885
 20
145.2178720550282
 30
0.0000000000000000
 40
3.099999904632568
 41
0.0000000000000000
 71
     5
 72
     1
  1
\A1;2-\U+220510H7
 11
1.000000000000000
 21
0.0000000000000000
 31
0.0000000000000000
  7
STANDARD
  0
ENDBLK
  5
1A3
100
AcDbEntity
  8
MAIN0
  6
CONTINUOUS
 62
3
100
AcDbBlockEnd
  0
BLOCK
  5
1B8
100
AcDbEntity
  8
MAIN0
  6
CONTINUOUS
 62
3
100
AcDbBlockBegin
  2
*D18
 70
    65
 10
0.0
 20
0.0
 30
0.0
  0
LINE
  5
1B9
100
AcDbEntity
  8
MAIN0
  6
BYBLOCK
 62
0
100
AcDbLine
 10
259.0346627342352
 20
221.2138804773436
 30
0.0000000000000000
 11
294.1018159215228
 21
175.0154522861236
 31
0.0000000000000000
  0
INSERT
  5
1BA
100
AcDbEntity
  8
MAIN0
  6
BYBLOCK
 62
0
100
AcDbBlockReference
  2
_OPEN
 10
257.8254505553633
 20
222.8069297253167
 30
0.0000000000000000
 41
2.000000000000000
 42
2.000000000000000
 43
2.000000000000000
 50
127.2005016948531
  0
INSERT
  5
1BB
100
AcDbEntity
  8
MAIN0
  6
BYBLOCK
 62
0
100
AcDbBlockReference
  2
_OPEN
 10
295.3110281003948
 20
173.4224030381505
 30
0.0000000000000000
 41
2.000000000000000
 42
2.000000000000000
 43
2.000000000000000
 50
307.2005016948531
  0
MTEXT
  5
1BC
100
AcDbEntity
  8
MAIN0
  6
BYBLOCK
 62
0
100
AcDbMText
 10
271.1506921460069
 20
208.6425287296369
 30
0.0000000000000000
 40
3.099999904632568
 41
0.0000000000000000
 71
     5
 72
     1
  1
\A1;\U+220562\H0.903226x;\U+00B10.2
 11
0.6046060894359918
 21
-0.7965246239865517
 31
0.0000000000000000
  7
STANDARD
  0
ENDBLK
  5
1BD
100
AcDbEntity
  8
MAIN0
  6
CONTINUOUS
 62
3
100
AcDbBlockEnd
  0
BLOCK
  5
1C9
100
AcDbEntity
  8
MAIN0
  6
CONTINUOUS
 62
3
100
AcDbBlockBegin
  2
*D19
 70
    65
 10
0.0
 20
0.0
 30
0.0
  0
LINE
  5
1CA
100
AcDbEntity
  8
MAIN0
  6
BYBLOCK
 62
0
100
AcDbLine
 10
149.3682393397999
 20
199.6146663817331
 30
0.0000000000000000
 11
178.5682393278790
 21
199.6146663817331
 31
0.0000000000000000
  0
LINE
  5
1CB
100
AcDbEntity
  8
MAIN0
  6
BYBLOCK
 62
0
100
AcDbLine
 10
176.5682393278790
 20
199.6146663817331
 30
0.0000000000000000
 11
176.5682393278790
 21
198.1146663817336
 31
0.0000000000000000
  0
INSERT
  5
1CC
100
AcDbEntity
  8
MAIN0
  6
BYBLOCK
 62
0
100
AcDbBlockReference
  2
_OPEN
 10
176.5682393278790
 20
199.6146663817331
 30
0.0000000000000000
 41
2.000000000000000
 42
2.000000000000000
 43
2.000000000000000
 50
270.0000000000000
  0
INSERT
  5
1CD
100
AcDbEntity
  8
MAIN0
  6
BYBLOCK
 62
0
100
AcDbBlockReference
  2
_OPEN
 10
176.5682393278790
 20
198.1146663817336
 30
0.0000000000000000
 41
2.000000000000000
 42
2.000000000000000
 43
2.000000000000000
 50
90.00000000000000
  0
LINE
  5
1CE
100
AcDbEntity
  8
MAIN0
  6
BYBLOCK
 62
0
100
AcDbLine
 10
176.5682393278790
 20
201.6146663817331
 30
0.0000000000000000
 11
176.5682393278790
 21
202.6146663817331
 31
0.0000000000000000
  0
LINE
  5
1CF
100
AcDbEntity
  8
MAIN0
  6
BYBLOCK
 62
0
100
AcDbLine
 10
176.5682393278790
 20
196.1146663817336
 30
0.0000000000000000
 11
176.5682393278790
 21
180.2146667632034
 31
0.0000000000000000
  0
LINE
  5
1D0
100
AcDbEntity
  8
MAIN0
  6
BYBLOCK
 62
0
100
AcDbLine
 10
160.0496894227400
 20
198.1146663817336
 30
0.0000000000000000
 11
178.5682393278790
 21
198.1146663817336
 31
0.0000000000000000
  0
MTEXT
  5
1D1
100
AcDbEntity
  8
MAIN0
  6
BYBLOCK
 62
0
100
AcDbMText
 10
174.5182393755628
 20
188.1146663817336
 30
0.0000000000000000
 40
3.099999904632568
 41
0.0000000000000000
 71
     5
 72
     1
  1
\A1;MAX 2.25
 11
6.123233995736766e-017
 21
1.000000000000000
 31
0.0000000000000000
  7
STANDARD
  0
ENDBLK
  5
1D2
100
AcDbEntity
  8
MAIN0
  6
CONTINUOUS
 62
3
100
AcDbBlockEnd
  0
BLOCK
  5
1D6
100
AcDbEntity
  8
MAIN0
  6
CONTINUOUS
 62
3
100
AcDbBlockBegin
  2
*D20
 70
    65
 10
0.0
 20
0.0
 30
0.0
  0
LINE
  5
1D7
100
AcDbEntity
  8
MAIN0
  6
BYBLOCK
 62
0
100
AcDbLine
 10
276.0682393276908
 20
200.4146663936466
 30
0.0000000000000000
 11
276.0682393276908
 21
210.5806870400456
 31
0.0000000000000000
  0
LINE
  5
1D8
100
AcDbEntity
  8
MAIN0
  6
BYBLOCK
 62
0
100
AcDbLine
 10
276.0682393276908
 20
208.5806870400456
 30
0.0000000000000000
 11
277.0682393281868
 21
208.5806870400456
 31
0.0000000000000000
  0
INSERT
  5
1D9
100
AcDbEntity
  8
MAIN0
  6
BYBLOCK
 62
0
100
AcDbBlockReference
  2
_OPEN
 10
276.0682393276908
 20
208.5806870400456
 30
0.0000000000000000
 41
2.000000000000000
 42
2.000000000000000
 43
2.000000000000000
 50
0.0000000000000000
  0
INSERT
  5
1DA
100
AcDbEntity
  8
MAIN0
  6
BYBLOCK
 62
0
100
AcDbBlockReference
  2
_OPEN
 10
277.0682393281868
 20
208.5806870400456
 30
0.0000000000000000
 41
2.000000000000000
 42
2.000000000000000
 43
2.000000000000000
 50
180.0000000000000
  0
LINE
  5
1DB
100
AcDbEntity
  8
MAIN0
  6
BYBLOCK
 62
0
100
AcDbLine
 10
274.0682393276908
 20
208.5806870400456
 30
0.0000000000000000
 11
273.0682393276908
 21
208.5806870400456
 31
0.0000000000000000
  0
LINE
  5
1DC
100
AcDbEntity
  8
MAIN0
  6
BYBLOCK
 62
0
100
AcDbLine
 10
279.0682393281868
 20
208.5806870400456
 30
0.0000000000000000
 11
280.6439760892799
 21
208.5806870400456
 31
0.0000000000000000
  0
LINE
  5
1DD
100
AcDbEntity
  8
MAIN0
  6
BYBLOCK
 62
0
100
AcDbLine
 10
277.0682393281868
 20
200.4146663936467
 30
0.0000000000000000
 11
277.0682393281868
 21
210.5806870400456
 31
0.0000000000000000
  0
MTEXT
  5
1DE
100
AcDbEntity
  8
MAIN0
  6
BYBLOCK
 62
0
100
AcDbMText
 10
279.5939759804545
 20
210.6306869923618
 30
0.0000000000000000
 40
3.099999904632568
 41
0.0000000000000000
 71
     5
 72
     1
  1
\A1;1
 11
1.000000000000000
 21
0.0000000000000000
 31
0.0000000000000000
  7
STANDARD
  0
ENDBLK
  5
1DF
100
AcDbEntity
  8
MAIN0
  6
CONTINUOUS
 62
3
100
AcDbBlockEnd
  0
BLOCK
  5
20A
100
AcDbEntity
  8
MAIN0
  6
BYBLOCK
 62
3
100
AcDbBlockBegin
  2
M0
 70
    64
 10
0.0
 20
0.0
 30
0.0
  0
LINE
  5
20B
100
AcDbEntity
  8
MAIN0
  6
BYBLOCK
 62
0
100
AcDbLine
 10
241.0682393278793
 20
66.51051851106425
 30
0.0000000000000000
 11
307.1361297376097
 21
66.51051851106425
 31
0.0000000000000000
  0
LINE
  5
20C
100
AcDbEntity
  8
MAIN0
  6
BYBLOCK
 62
0
100
AcDbLine
 10
241.0682393278793
 20
61.51051851106425
 30
0.0000000000000000
 11
307.1361297376097
 21
61.51051851106425
 31
0.0000000000000000
  0
LINE
  5
20D
100
AcDbEntity
  8
MAIN0
  6
BYBLOCK
 62
0
100
AcDbLine
 10
241.0682393278793
 20
56.51051851106431
 30
0.0000000000000000
 11
307.1361297376097
 21
56.51051851106431
 31
0.0000000000000000
  0
MTEXT
  5
20E
100
AcDbEntity
  8
MAIN0
  6
BYBLOCK
 62
0
100
AcDbMText
 10
242.0682393278793
 20
70.11051841569682
 30
0.0000000000000000
 40
3.099999904632568
 41
0.0000000000000000
 71
     1
 72
     1
  1
{\H0.88x;1.}
 11
1.000000000000000
 21
0.0000000000000000
 31
0.0000000000000000
  7
STANDARD
  0
MTEXT
  5
20F
100
AcDbEntity
  8
MAIN0
  6
BYBLOCK
 62
0
100
AcDbMText
 10
242.0682393278793
 20
60.11051841569687
 30
0.0000000000000000
 40
3.099999904632568
 41
0.0000000000000000
 71
     1
 72
     1
  1
{\H0.88x;2.}
 11
1.000000000000000
 21
0.0000000000000000
 31
0.0000000000000000
  7
STANDARD
  0
MTEXT
  5
210
100
AcDbEntity
  8
MAIN0
  6
BYBLOCK
 62
0
100
AcDbMText
 10
242.5682393278793
 20
80.51051851106453
 30
0.0000000000000000
 40
6.000000000000000
 41
0.0000000000000000
 71
     1
 72
     1
  1
{\H0.80x;要注意}
 11
1.000000000000000
 21
0.0000000000000000
 31
0.0000000000000000
  7
KNJYOKO
  0
LINE
  5
211
100
AcDbEntity
  8
MAIN0
  6
BYBLOCK
 62
0
100
AcDbLine
 10
261.0682393278793
 20
82.01051851106453
 30
0.0000000000000000
 11
261.0682393278793
 21
73.01051851106453
 31
0.0000000000000000
  0
LINE
  5
212
100
AcDbEntity
  8
MAIN0
  6
BYBLOCK
 62
0
100
AcDbLine
 10
241.0682393278793
 20
73.01051851106453
 30
0.0000000000000000
 11
261.0682393278793
 21
73.01051851106453
 31
0.0000000000000000
  0
LINE
  5
213
100
AcDbEntity
  8
MAIN0
  6
BYBLOCK
 62
0
100
AcDbLine
 10
241.0682393278793
 20
82.01051851106453
 30
0.0000000000000000
 11
241.0682393278793
 21
73.01051851106453
 31
0.0000000000000000
  0
LINE
  5
214
100
AcDbEntity
  8
MAIN0
  6
BYBLOCK
 62
0
100
AcDbLine
 10
241.0682393278793
 20
82.01051851106453
 30
0.0000000000000000
 11
261.0682393278793
 21
82.01051851106453
 31
0.0000000000000000
  0
ENDBLK
  5
215
100
AcDbEntity
  8
MAIN0
  6
BYBLOCK
 62
3
100
AcDbBlockEnd
  0
BLOCK
  5
217
100
AcDbEntity
  8
MAIN0
  6
BYBLOCK
 62
3
100
AcDbBlockBegin
  2
M1
 70
    64
 10
0.0
 20
0.0
 30
0.0
  0
LINE
  5
218
100
AcDbEntity
  8
MAIN0
  6
BYBLOCK
 62
0
100
AcDbLine
 10
312.6812496074205
 20
66.51051851106425
 30
0.0000000000000000
 11
403.6492126794672
 21
66.51051851106425
 31
0.0000000000000000
  0
LINE
  5
219
100
AcDbEntity
  8
MAIN0
  6
BYBLOCK
 62
0
100
AcDbLine
 10
312.6812496074205
 20
61.51051851106425
 30
0.0000000000000000
 11
403.6492126794672
 21
61.51051851106425
 31
0.0000000000000000
  0
LINE
  5
21A
100
AcDbEntity
  8
MAIN0
  6
BYBLOCK
 62
0
100
AcDbLine
 10
312.6812496074205
 20
56.51051851106431
 30
0.0000000000000000
 11
403.6492126794672
 21
56.51051851106431
 31
0.0000000000000000
  0
MTEXT
  5
21B
100
AcDbEntity
  8
MAIN0
  6
BYBLOCK
 62
0
100
AcDbMText
 10
313.6812496074205
 20
70.11051841569682
 30
0.0000000000000000
 40
3.099999904632568
 41
0.0000000000000000
 71
     1
 72
     1
  1
{\H0.88x;1.}
 11
1.000000000000000
 21
0.0000000000000000
 31
0.0000000000000000
  7
STANDARD
  0
MTEXT
  5
21C
100
AcDbEntity
  8
MAIN0
  6
BYBLOCK
 62
0
100
AcDbMText
 10
313.6812496074205
 20
60.11051841569687
 30
0.0000000000000000
 40
3.099999904632568
 41
0.0000000000000000
 71
     1
 72
     1
  1
{\H0.88x;2.}
 11
1.000000000000000
 21
0.0000000000000000
 31
0.0000000000000000
  7
STANDARD
  0
MTEXT
  5
21D
100
AcDbEntity
  8
MAIN0
  6
BYBLOCK
 62
0
100
AcDbMText
 10
314.1812496074205
 20
78.51051851106453
 30
0.0000000000000000
 40
4.000000000000000
 41
0.0000000000000000
 71
     1
 72
     1
  1
{\H0.63x;CAUTION}
 11
1.000000000000000
 21
0.0000000000000000
 31
0.0000000000000000
  7
STANDARD
  0
LINE
  5
21E
100
AcDbEntity
  8
MAIN0
  6
BYBLOCK
 62
0
100
AcDbLine
 10
332.6812496074205
 20
82.01051851106453
 30
0.0000000000000000
 11
332.6812496074205
 21
73.01051851106453
 31
0.0000000000000000
  0
LINE
  5
21F
100
AcDbEntity
  8
MAIN0
  6
BYBLOCK
 62
0
100
AcDbLine
 10
312.6812496074205
 20
73.01051851106453
 30
0.0000000000000000
 11
332.6812496074205
 21
73.01051851106453
 31
0.0000000000000000
  0
LINE
  5
220
100
AcDbEntity
  8
MAIN0
  6
BYBLOCK
 62
0
100
AcDbLine
 10
312.6812496074205
 20
82.01051851106453
 30
0.0000000000000000
 11
312.6812496074205
 21
73.01051851106453
 31
0.0000000000000000
  0
LINE
  5
221
100
AcDbEntity
  8
MAIN0
  6
BYBLOCK
 62
0
100
AcDbLine
 10
312.6812496074205
 20
82.01051851106453
 30
0.0000000000000000
 11
332.6812496074205
 21
82.01051851106453
 31
0.0000000000000000
  0
ENDBLK
  5
222
100
AcDbEntity
  8
MAIN0
  6
BYBLOCK
 62
3
100
AcDbBlockEnd
  0
BLOCK
  5
24B
100
AcDbEntity
  8
MAIN0
  6
BYBLOCK
 62
3
100
AcDbBlockBegin
  2
*X0
 70
     1
 10
0.0
 20
0.0
 30
0.0
  0
LINE
  5
24C
100
AcDbEntity
  8
MAIN0
  6
BYBLOCK
 62
0
100
AcDbLine
 10
290.3965985240093
 20
227.7696783773055
 30
0.0000000000000000
 11
295.7769323254379
 21
207.6899992686936
 31
0.0000000000000000
  0
LINE
  5
24D
100
AcDbEntity
  8
MAIN0
  6
BYBLOCK
 62
0
100
AcDbLine
 10
291.7115531229218
 20
230.5896076148293
 30
0.0000000000000000
 11
300.9855915897098
 21
195.9784248654288
 31
0.0000000000000000
  0
LINE
  5
24E
100
AcDbEntity
  8
MAIN0
  6
BYBLOCK
 62
0
100
AcDbLine
 10
293.0265077218352
 20
233.4095368523514
 30
0.0000000000000000
 11
303.1058480992451
 21
195.7929264570777
 31
0.0000000000000000
  0
LINE
  5
24F
100
AcDbEntity
  8
MAIN0
  6
BYBLOCK
 62
0
100
AcDbLine
 10
294.3414623207481
 20
236.2294660898762
 30
0.0000000000000000
 11
305.2261046087800
 21
195.6074280487266
 31
0.0000000000000000
  0
LINE
  5
250
100
AcDbEntity
  8
MAIN0
  6
BYBLOCK
 62
0
100
AcDbLine
 10
295.6564169196601
 20
239.0493953274018
 30
0.0000000000000000
 11
307.3463611183148
 21
195.4219296403763
 31
0.0000000000000000
  0
LINE
  5
251
100
AcDbEntity
  8
MAIN0
  6
BYBLOCK
 62
0
100
AcDbLine
 10
300.9867683342695
 20
226.8836596361954
 30
0.0000000000000000
 11
309.4666176278506
 21
195.2364312320243
 31
0.0000000000000000
  0
LINE
  5
252
100
AcDbEntity
  8
MAIN0
  6
BYBLOCK
 62
0
100
AcDbLine
 10
302.5809499193111
 20
228.6614995746433
 30
0.0000000000000000
 11
311.5868741373856
 21
195.0509328236741
 31
0.0000000000000000
  0
LINE
  5
253
100
AcDbEntity
  8
MAIN0
  6
BYBLOCK
 62
0
100
AcDbLine
 10
304.2992162053539
 20
229.9762491045101
 30
0.0000000000000000
 11
313.7071306469208
 21
194.8654344153221
 31
0.0000000000000000
  0
LINE
  5
254
100
AcDbEntity
  8
MAIN0
  6
BYBLOCK
 62
0
100
AcDbLine
 10
307.6094413195384
 20
225.3497274041957
 30
0.0000000000000000
 11
315.8273871564555
 21
194.6799360069709
 31
0.0000000000000000
  0
LINE
  5
255
100
AcDbEntity
  8
MAIN0
  6
BYBLOCK
 62
0
100
AcDbLine
 10
311.4731446246955
 20
218.6575969742900
 30
0.0000000000000000
 11
317.9476436659912
 21
194.4944375986180
 31
0.0000000000000000
  0
LINE
  5
256
100
AcDbEntity
  8
MAIN0
  6
BYBLOCK
 62
0
100
AcDbLine
 10
315.3368479298525
 20
211.9654665443842
 30
0.0000000000000000
 11
320.0679001755262
 21
194.3089391902678
 31
0.0000000000000000
  0
LINE
  5
257
100
AcDbEntity
  8
MAIN0
  6
BYBLOCK
 62
0
100
AcDbLine
 10
319.2005512350098
 20
205.2733361144784
 30
0.0000000000000000
 11
322.1881566850614
 21
194.1234407819158
 31
0.0000000000000000
  0
LINE
  5
258
100
AcDbEntity
  8
MAIN0
  6
BYBLOCK
 62
0
100
AcDbLine
 10
323.0642545401671
 20
198.5812056845717
 30
0.0000000000000000
 11
324.3084131945963
 21
193.9379423735655
 31
0.0000000000000000
  0
LINE
  5
259
100
AcDbEntity
  8
MAIN0
  6
BYBLOCK
 62
0
100
AcDbLine
 10
289.0816439250976
 20
224.9497491397771
 30
0.0000000000000000
 11
296.7450785706395
 21
196.3494216821329
 31
0.0000000000000000
  0
LINE
  5
25A
100
AcDbEntity
  8
MAIN0
  6
BYBLOCK
 62
0
100
AcDbLine
 10
287.7666893261845
 20
222.1298199022559
 30
0.0000000000000000
 11
294.6248220611041
 21
196.5349200904840
 31
0.0000000000000000
  0
LINE
  5
25B
100
AcDbEntity
  8
MAIN0
  6
BYBLOCK
 62
0
100
AcDbLine
 10
286.4517347272723
 20
219.3098906647293
 30
0.0000000000000000
 11
289.6702615782523
 21
207.2981849313269
 31
0.0000000000000000
  0
LINE
  5
25C
100
AcDbEntity
  8
MAIN0
  6
BYBLOCK
 62
0
100
AcDbLine
 10
285.1367801283597
 20
216.4899614272055
 30
0.0000000000000000
 11
286.7542664028019
 21
210.4534204691178
 31
0.0000000000000000
  0
LINE
  5
25D
100
AcDbEntity
  8
MAIN0
  6
BYBLOCK
 62
0
100
AcDbLine
 10
283.8218255294470
 20
213.6700321896816
 30
0.0000000000000000
 11
284.2255371480362
 21
212.1633599186223
 31
0.0000000000000000
  0
ENDBLK
  5
25E
100
AcDbEntity
  8
MAIN0
  6
BYBLOCK
 62
3
100
AcDbBlockEnd
  0
BLOCK
  5
2CD
100
AcDbEntity
  8
MAIN0
  6
CONTINUOUS
 62
3
100
AcDbBlockBegin
  2
*D21
 70
    65
 10
0.0
 20
0.0
 30
0.0
  0
LINE
  5
2CE
100
AcDbEntity
  8
MAIN0
  6
BYBLOCK
 62
0
100
AcDbLine
 10
149.3682393397999
 20
199.6146663817331
 30
0.0000000000000000
 11
178.5682393278790
 21
199.6146663817331
 31
0.0000000000000000
  0
LINE
  5
2CF
100
AcDbEntity
  8
MAIN0
  6
BYBLOCK
 62
0
100
AcDbLine
 10
176.5682393278790
 20
201.6146663817331
 30
0.0000000000000000
 11
176.5682393278790
 21
238.1146663817314
 31
0.0000000000000000
  0
INSERT
  5
2D0
100
AcDbEntity
  8
MAIN0
  6
BYBLOCK
 62
0
100
AcDbBlockReference
  2
_OPEN
 10
176.5682393278790
 20
199.6146663817331
 30
0.0000000000000000
 41
2.000000000000000
 42
2.000000000000000
 43
2.000000000000000
 50
270.0000000000000
  0
INSERT
  5
2D1
100
AcDbEntity
  8
MAIN0
  6
BYBLOCK
 62
0
100
AcDbBlockReference
  2
_OPEN
 10
176.5682393278790
 20
240.1146663817314
 30
0.0000000000000000
 41
2.000000000000000
 42
2.000000000000000
 43
2.000000000000000
 50
90.00000000000000
  0
LINE
  5
2D2
100
AcDbEntity
  8
MAIN0
  6
BYBLOCK
 62
0
100
AcDbLine
 10
149.3682393397999
 20
240.1146663817314
 30
0.0000000000000000
 11
178.5682393278790
 21
240.1146663817314
 31
0.0000000000000000
  0
MTEXT
  5
2D3
100
AcDbEntity
  8
MAIN0
  6
BYBLOCK
 62
0
100
AcDbMText
 10
174.5182393755628
 20
219.8646663817323
 30
0.0000000000000000
 40
3.099999904632568
 41
0.0000000000000000
 71
     5
 72
     1
  1
\A1;40.5
 11
6.123233995736766e-017
 21
1.000000000000000
 31
0.0000000000000000
  7
STANDARD
  0
ENDBLK
  5
2D4
100
AcDbEntity
  8
MAIN0
  6
CONTINUOUS
 62
3
100
AcDbBlockEnd
  0
BLOCK
  5
2F6
100
AcDbEntity
  8
MAIN0
  6
CONTINUOUS
 62
3
100
AcDbBlockBegin
  2
*D22
 70
    65
 10
0.0
 20
0.0
 30
0.0
  0
LINE
  5
2F7
100
AcDbEntity
  8
MAIN0
  6
BYBLOCK
 62
0
100
AcDbLine
 10
40.76823931595800
 20
272.1146663817336
 30
0.0000000000000000
 11
23.24517309194289
 21
272.1146663817336
 31
0.0000000000000000
  0
LINE
  5
2F8
100
AcDbEntity
  8
MAIN0
  6
BYBLOCK
 62
0
100
AcDbLine
 10
25.24517309194289
 20
270.1146663817336
 30
0.0000000000000000
 11
25.24517309194289
 21
126.1146663817336
 31
0.0000000000000000
  0
INSERT
  5
2F9
100
AcDbEntity
  8
MAIN0
  6
BYBLOCK
 62
0
100
AcDbBlockReference
  2
_OPEN
 10
25.24517309194289
 20
272.1146663817336
 30
0.0000000000000000
 41
2.000000000000000
 42
2.000000000000000
 43
2.000000000000000
 50
90.00000000000000
  0
INSERT
  5
2FA
100
AcDbEntity
  8
MAIN0
  6
BYBLOCK
 62
0
100
AcDbBlockReference
  2
_OPEN
 10
25.24517309194289
 20
124.1146663817336
 30
0.0000000000000000
 41
2.000000000000000
 42
2.000000000000000
 43
2.000000000000000
 50
270.0000000000000
  0
LINE
  5
2FB
100
AcDbEntity
  8
MAIN0
  6
BYBLOCK
 62
0
100
AcDbLine
 10
40.76823931595801
 20
124.1146663817336
 30
0.0000000000000000
 11
23.24517309194289
 21
124.1146663817336
 31
0.0000000000000000
  0
MTEXT
  5
2FC
100
AcDbEntity
  8
MAIN0
  6
BYBLOCK
 62
0
100
AcDbMText
 10
23.19517313962660
 20
198.1146663817336
 30
0.0000000000000000
 40
3.099999904632568
 41
0.0000000000000000
 71
     5
 72
     1
  1
\A1;\U+2205148h7
 11
6.123233995736766e-017
 21
1.000000000000000
 31
0.0000000000000000
  7
STANDARD
  0
ENDBLK
  5
2FD
100
AcDbEntity
  8
MAIN0
  6
CONTINUOUS
 62
3
100
AcDbBlockEnd
  0
BLOCK
  5
31B
100
AcDbEntity
  8
MAIN0
  6
CONTINUOUS
 62
3
100
AcDbBlockBegin
  2
D23
 70
    64
 10
0.0
 20
0.0
 30
0.0
  0
LINE
  5
31C
100
AcDbEntity
  8
MAIN0
  6
BYBLOCK
 62
0
100
AcDbLine
 10
2.318549917059947
 20
-1.600000455278658
 30
0.0000000000000000
 11
2.318549917059954
 21
-40.00000000000079
 31
0.0000000000000000
  0
LINE
  5
31D
100
AcDbEntity
  8
MAIN0
  6
BYBLOCK
 62
0
100
AcDbLine
 10
2.918549940901812
 20
-38.00000000000079
 30
0.0000000000000000
 11
2.318549917059954
 21
-40.00000000000079
 31
0.0000000000000000
  0
LINE
  5
31E
100
AcDbEntity
  8
MAIN0
  6
BYBLOCK
 62
0
100
AcDbLine
 10
2.318549917059954
 20
-40.00000000000079
 30
0.0000000000000000
 11
1.718549893218096
 21
-38.00000000000079
 31
0.0000000000000000
  0
LINE
  5
31F
100
AcDbEntity
  8
MAIN0
  6
BYBLOCK
 62
0
100
AcDbLine
 10
-31.38145007101921
 20
-40.00000000000070
 30
0.0000000000000000
 11
4.318549917059954
 21
-40.00000000000080
 31
0.0000000000000000
  0
MTEXT
  5
320
100
AcDbEntity
  8
MAIN0
  6
BYBLOCK
 62
0
100
AcDbMText
 10
0.2685499647436700
 20
-5.000000000000001
 30
0.0000000000000000
 40
3.099999904632568
 41
0.0000000000000000
 71
     5
 72
     1
  1
\A1;\U+220580
 11
6.123233995736766e-017
 21
1.000000000000000
 31
0.0000000000000000
  7
STANDARD
  0
ENDBLK
  5
321
100
AcDbEntity
  8
MAIN0
  6
CONTINUOUS
 62
3
100
AcDbBlockEnd
  0
BLOCK
  5
323
100
AcDbEntity
  8
MAIN0
  6
CONTINUOUS
 62
3
100
AcDbBlockBegin
  2
D24
 70
    64
 10
0.0
 20
0.0
 30
0.0
  0
LINE
  5
324
100
AcDbEntity
  8
MAIN0
  6
BYBLOCK
 62
0
100
AcDbLine
 10
-14.68145008294005
 20
-1.600000980687184
 30
0.0000000000000000
 11
-14.68145008294005
 21
-37.00000000000066
 31
0.0000000000000000
  0
LINE
  5
325
100
AcDbEntity
  8
MAIN0
  6
BYBLOCK
 62
0
100
AcDbLine
 10
-14.08145005909819
 20
-35.00000000000066
 30
0.0000000000000000
 11
-14.68145008294005
 21
-37.00000000000066
 31
0.0000000000000000
  0
LINE
  5
326
100
AcDbEntity
  8
MAIN0
  6
BYBLOCK
 62
0
100
AcDbLine
 10
-14.68145008294005
 20
-37.00000000000066
 30
0.0000000000000000
 11
-15.28145010678190
 21
-35.00000000000066
 31
0.0000000000000000
  0
LINE
  5
327
100
AcDbEntity
  8
MAIN0
  6
BYBLOCK
 62
0
100
AcDbLine
 10
-31.88145007101910
 20
-37.00000000000062
 30
0.0000000000000000
 11
-12.68145008294005
 21
-37.00000000000067
 31
0.0000000000000000
  0
MTEXT
  5
328
100
AcDbEntity
  8
MAIN0
  6
BYBLOCK
 62
0
100
AcDbMText
 10
-16.73145003525633
 20
-17.79999971389771
 30
0.0000000000000000
 40
3.099999904632568
 41
0.0000000000000000
 71
     5
 72
     1
  1
\A1;\U+220574
 11
6.123233995736766e-017
 21
1.000000000000000
 31
0.0000000000000000
  7
STANDARD
  0
ENDBLK
  5
329
100
AcDbEntity
  8
MAIN0
  6
CONTINUOUS
 62
3
100
AcDbBlockEnd
  0
BLOCK
  5
334
100
AcDbEntity
  8
MAIN0
  6
CONTINUOUS
 62
3
100
AcDbBlockBegin
  2
*D25
 70
    65
 10
0.0
 20
0.0
 30
0.0
  0
LINE
  5
335
100
AcDbEntity
  8
MAIN0
  6
BYBLOCK
 62
0
100
AcDbLine
 10
149.3682393397999
 20
199.6146663817331
 30
0.0000000000000000
 11
168.5682393278790
 21
199.6146663817331
 31
0.0000000000000000
  0
LINE
  5
336
100
AcDbEntity
  8
MAIN0
  6
BYBLOCK
 62
0
100
AcDbLine
 10
166.5682393278790
 20
201.6146663817331
 30
0.0000000000000000
 11
166.5682393278790
 21
217.1146663817334
 31
0.0000000000000000
  0
INSERT
  5
337
100
AcDbEntity
  8
MAIN0
  6
BYBLOCK
 62
0
100
AcDbBlockReference
  2
_OPEN
 10
166.5682393278790
 20
199.6146663817331
 30
0.0000000000000000
 41
2.000000000000000
 42
2.000000000000000
 43
2.000000000000000
 50
270.0000000000000
  0
INSERT
  5
338
100
AcDbEntity
  8
MAIN0
  6
BYBLOCK
 62
0
100
AcDbBlockReference
  2
_OPEN
 10
166.5682393278790
 20
219.1146663817334
 30
0.0000000000000000
 41
2.000000000000000
 42
2.000000000000000
 43
2.000000000000000
 50
90.00000000000000
  0
LINE
  5
339
100
AcDbEntity
  8
MAIN0
  6
BYBLOCK
 62
0
100
AcDbLine
 10
135.3682393398000
 20
219.1146663817334
 30
0.0000000000000000
 11
168.5682393278790
 21
219.1146663817334
 31
0.0000000000000000
  0
MTEXT
  5
33A
100
AcDbEntity
  8
MAIN0
  6
BYBLOCK
 62
0
100
AcDbMText
 10
164.5182393755628
 20
209.3646663817333
 30
0.0000000000000000
 40
3.099999904632568
 41
0.0000000000000000
 71
     5
 72
     1
  1
\A1;19.5
 11
6.123233995736766e-017
 21
1.000000000000000
 31
0.0000000000000000
  7
STANDARD
  0
ENDBLK
  5
33B
100
AcDbEntity
  8
MAIN0
  6
CONTINUOUS
 62
3
100
AcDbBlockEnd
  0
BLOCK
  5
33D
100
AcDbEntity
  8
MAIN0
  6
CONTINUOUS
 62
3
100
AcDbBlockBegin
  2
*D26
 70
    65
 10
0.0
 20
0.0
 30
0.0
  0
LINE
  5
33E
100
AcDbEntity
  8
MAIN0
  6
BYBLOCK
 62
0
100
AcDbLine
 10
135.3682393398000
 20
219.1146663817334
 30
0.0000000000000000
 11
168.5682393278790
 21
219.1146663817334
 31
0.0000000000000000
  0
LINE
  5
33F
100
AcDbEntity
  8
MAIN0
  6
BYBLOCK
 62
0
100
AcDbLine
 10
166.5682393278790
 20
221.1146663817334
 30
0.0000000000000000
 11
166.5682393278790
 21
228.6146663817334
 31
0.0000000000000000
  0
INSERT
  5
340
100
AcDbEntity
  8
MAIN0
  6
BYBLOCK
 62
0
100
AcDbBlockReference
  2
_OPEN
 10
166.5682393278790
 20
219.1146663817334
 30
0.0000000000000000
 41
2.000000000000000
 42
2.000000000000000
 43
2.000000000000000
 50
270.0000000000000
  0
INSERT
  5
341
100
AcDbEntity
  8
MAIN0
  6
BYBLOCK
 62
0
100
AcDbBlockReference
  2
_OPEN
 10
166.5682393278790
 20
230.6146663817334
 30
0.0000000000000000
 41
2.000000000000000
 42
2.000000000000000
 43
2.000000000000000
 50
90.00000000000000
  0
LINE
  5
342
100
AcDbEntity
  8
MAIN0
  6
BYBLOCK
 62
0
100
AcDbLine
 10
151.9521535932213
 20
230.6146663817334
 30
0.0000000000000000
 11
168.5682393278790
 21
230.6146663817334
 31
0.0000000000000000
  0
MTEXT
  5
343
100
AcDbEntity
  8
MAIN0
  6
BYBLOCK
 62
0
100
AcDbMText
 10
164.5182393755628
 20
224.8646663817334
 30
0.0000000000000000
 40
3.099999904632568
 41
0.0000000000000000
 71
     5
 72
     1
  1
\A1;11.5
 11
6.123233995736766e-017
 21
1.000000000000000
 31
0.0000000000000000
  7
STANDARD
  0
ENDBLK
  5
344
100
AcDbEntity
  8
MAIN0
  6
CONTINUOUS
 62
3
100
AcDbBlockEnd
  0
BLOCK
  5
346
100
AcDbEntity
  8
MAIN0
  6
CONTINUOUS
 62
3
100
AcDbBlockBegin
  2
*D27
 70
    65
 10
0.0
 20
0.0
 30
0.0
  0
LINE
  5
347
100
AcDbEntity
  8
MAIN0
  6
BYBLOCK
 62
0
100
AcDbLine
 10
151.9521535932213
 20
230.6146663817334
 30
0.0000000000000000
 11
168.5682393278790
 21
230.6146663817334
 31
0.0000000000000000
  0
LINE
  5
348
100
AcDbEntity
  8
MAIN0
  6
BYBLOCK
 62
0
100
AcDbLine
 10
166.5682393278790
 20
232.6146663817334
 30
0.0000000000000000
 11
166.5682393278790
 21
238.1146663817314
 31
0.0000000000000000
  0
INSERT
  5
349
100
AcDbEntity
  8
MAIN0
  6
BYBLOCK
 62
0
100
AcDbBlockReference
  2
_OPEN
 10
166.5682393278790
 20
230.6146663817334
 30
0.0000000000000000
 41
2.000000000000000
 42
2.000000000000000
 43
2.000000000000000
 50
270.0000000000000
  0
INSERT
  5
34A
100
AcDbEntity
  8
MAIN0
  6
BYBLOCK
 62
0
100
AcDbBlockReference
  2
_OPEN
 10
166.5682393278790
 20
240.1146663817314
 30
0.0000000000000000
 41
2.000000000000000
 42
2.000000000000000
 43
2.000000000000000
 50
90.00000000000000
  0
LINE
  5
34B
100
AcDbEntity
  8
MAIN0
  6
BYBLOCK
 62
0
100
AcDbLine
 10
149.3682393397999
 20
240.1146663817314
 30
0.0000000000000000
 11
168.5682393278790
 21
240.1146663817314
 31
0.0000000000000000
  0
MTEXT
  5
34C
100
AcDbEntity
  8
MAIN0
  6
BYBLOCK
 62
0
100
AcDbMText
 10
164.5182393755628
 20
235.3646663817324
 30
0.0000000000000000
 40
3.099999904632568
 41
0.0000000000000000
 71
     5
 72
     1
  1
\A1;9.5
 11
6.123233995736766e-017
 21
1.000000000000000
 31
0.0000000000000000
  7
STANDARD
  0
ENDBLK
  5
34D
100
AcDbEntity
  8
MAIN0
  6
CONTINUOUS
 62
3
100
AcDbBlockEnd
  0
BLOCK
  5
34F
100
AcDbEntity
  8
MAIN0
  6
CONTINUOUS
 62
3
100
AcDbBlockBegin
  2
D28
 70
    64
 10
0.0
 20
0.0
 30
0.0
  0
LINE
  5
350
100
AcDbEntity
  8
MAIN0
  6
BYBLOCK
 62
0
100
AcDbLine
 10
-23.18145008294004
 20
-1.817545929449347e-016
 30
0.0000000000000000
 11
-23.18145008294005
 21
-15.99999999999982
 31
0.0000000000000000
  0
LINE
  5
351
100
AcDbEntity
  8
MAIN0
  6
BYBLOCK
 62
0
100
AcDbLine
 10
-22.58145005909819
 20
-13.99999999999982
 30
0.0000000000000000
 11
-23.18145008294005
 21
-15.99999999999982
 31
0.0000000000000000
  0
LINE
  5
352
100
AcDbEntity
  8
MAIN0
  6
BYBLOCK
 62
0
100
AcDbLine
 10
-23.18145008294005
 20
-15.99999999999982
 30
0.0000000000000000
 11
-23.78145010678190
 21
-13.99999999999982
 31
0.0000000000000000
  0
LINE
  5
353
100
AcDbEntity
  8
MAIN0
  6
BYBLOCK
 62
0
100
AcDbLine
 10
-32.38145007101912
 20
-15.99999999999982
 30
0.0000000000000000
 11
-21.18145008294005
 21
-15.99999999999982
 31
0.0000000000000000
  0
MTEXT
  5
354
100
AcDbEntity
  8
MAIN0
  6
BYBLOCK
 62
0
100
AcDbMText
 10
-25.23145003525633
 20
-7.999999869614655
 30
0.0000000000000000
 40
3.099999904632568
 41
0.0000000000000000
 71
     5
 72
     1
  1
\A1;\U+220532\H0.903226x;\S+0.01^  0   ;
 11
6.123233995736766e-017
 21
1.000000000000000
 31
0.0000000000000000
  7
STANDARD
  0
ENDBLK
  5
355
100
AcDbEntity
  8
MAIN0
  6
CONTINUOUS
 62
3
100
AcDbBlockEnd
  0
BLOCK
  5
35B
100
AcDbEntity
  8
MAIN0
  6
CONTINUOUS
 62
3
100
AcDbBlockBegin
  2
*D29
 70
    65
 10
0.0
 20
0.0
 30
0.0
  0
LINE
  5
35C
100
AcDbEntity
  8
MAIN0
  6
BYBLOCK
 62
0
100
AcDbLine
 10
40.76823931595801
 20
208.1146663817336
 30
0.0000000000000000
 11
29.55744956553949
 21
208.1146663817336
 31
0.0000000000000000
  0
LINE
  5
35D
100
AcDbEntity
  8
MAIN0
  6
BYBLOCK
 62
0
100
AcDbLine
 10
31.55744956553949
 20
206.1146663817336
 30
0.0000000000000000
 11
31.55744956553949
 21
190.1146663817336
 31
0.0000000000000000
  0
INSERT
  5
35E
100
AcDbEntity
  8
MAIN0
  6
BYBLOCK
 62
0
100
AcDbBlockReference
  2
_OPEN
 10
31.55744956553949
 20
208.1146663817336
 30
0.0000000000000000
 41
2.000000000000000
 42
2.000000000000000
 43
2.000000000000000
 50
90.00000000000000
  0
INSERT
  5
35F
100
AcDbEntity
  8
MAIN0
  6
BYBLOCK
 62
0
100
AcDbBlockReference
  2
_OPEN
 10
31.55744956553949
 20
188.1146663817336
 30
0.0000000000000000
 41
2.000000000000000
 42
2.000000000000000
 43
2.000000000000000
 50
270.0000000000000
  0
LINE
  5
360
100
AcDbEntity
  8
MAIN0
  6
BYBLOCK
 62
0
100
AcDbLine
 10
40.76823931595803
 20
188.1146663817336
 30
0.0000000000000000
 11
29.55744956553949
 21
188.1146663817336
 31
0.0000000000000000
  0
MTEXT
  5
361
100
AcDbEntity
  8
MAIN0
  6
BYBLOCK
 62
0
100
AcDbMText
 10
29.50744961322320
 20
198.1146663817336
 30
0.0000000000000000
 40
3.099999904632568
 41
0.0000000000000000
 71
     5
 72
     1
  1
\A1;\U+220520H7
 11
6.123233995736766e-017
 21
1.000000000000000
 31
0.0000000000000000
  7
STANDARD
  0
ENDBLK
  5
362
100
AcDbEntity
  8
MAIN0
  6
CONTINUOUS
 62
3
100
AcDbBlockEnd
  0
BLOCK
  5
364
100
AcDbEntity
  8
MAIN0
  6
CONTINUOUS
 62
3
100
AcDbBlockBegin
  2
*D30
 70
    65
 10
0.0
 20
0.0
 30
0.0
  0
LINE
  5
365
100
AcDbEntity
  8
MAIN0
  6
BYBLOCK
 62
0
100
AcDbLine
 10
46.56823932787894
 20
208.9146663936546
 30
0.0000000000000000
 11
46.56823932787894
 21
220.1250152608776
 31
0.0000000000000000
  0
LINE
  5
366
100
AcDbEntity
  8
MAIN0
  6
BYBLOCK
 62
0
100
AcDbLine
 10
46.56823932787894
 20
218.1250152608776
 30
0.0000000000000000
 11
41.56823932787894
 21
218.1250152608776
 31
0.0000000000000000
  0
INSERT
  5
367
100
AcDbEntity
  8
MAIN0
  6
BYBLOCK
 62
0
100
AcDbBlockReference
  2
_OPEN
 10
46.56823932787894
 20
218.1250152608776
 30
0.0000000000000000
 41
2.000000000000000
 42
2.000000000000000
 43
2.000000000000000
 50
180.0000000000000
  0
INSERT
  5
368
100
AcDbEntity
  8
MAIN0
  6
BYBLOCK
 62
0
100
AcDbBlockReference
  2
_OPEN
 10
41.56823932787894
 20
218.1250152608776
 30
0.0000000000000000
 41
2.000000000000000
 42
2.000000000000000
 43
2.000000000000000
 50
360.0000000000000
  0
LINE
  5
369
100
AcDbEntity
  8
MAIN0
  6
BYBLOCK
 62
0
100
AcDbLine
 10
48.56823932787894
 20
218.1250152608776
 30
0.0000000000000000
 11
49.56823932787894
 21
218.1250152608776
 31
0.0000000000000000
  0
LINE
  5
36A
100
AcDbEntity
  8
MAIN0
  6
BYBLOCK
 62
0
100
AcDbLine
 10
39.56823932787894
 20
218.1250152608776
 30
0.0000000000000000
 11
38.56823932787894
 21
218.1250152608776
 31
0.0000000000000000
  0
MTEXT
  5
36B
100
AcDbEntity
  8
MAIN0
  6
BYBLOCK
 62
0
100
AcDbMText
 10
44.06823932787894
 20
220.1750152131939
 30
0.0000000000000000
 40
3.099999904632568
 41
0.0000000000000000
 71
     5
 72
     1
  1
\A1;5
 11
1.000000000000000
 21
0.0000000000000000
 31
0.0000000000000000
  7
STANDARD
  0
ENDBLK
  5
36C
100
AcDbEntity
  8
MAIN0
  6
CONTINUOUS
 62
3
100
AcDbBlockEnd
  0
BLOCK
  5
36F
100
AcDbEntity
  8
MAIN0
  6
CONTINUOUS
 62
3
100
AcDbBlockBegin
  2
*D31
 70
    65
 10
0.0
 20
0.0
 30
0.0
  0
LINE
  5
370
100
AcDbEntity
  8
MAIN0
  6
BYBLOCK
 62
0
100
AcDbLine
 10
86.56823932787900
 20
121.8146663698126
 30
0.0000000000000000
 11
86.56823932787900
 21
110.4950966766263
 31
0.0000000000000000
  0
LINE
  5
371
100
AcDbEntity
  8
MAIN0
  6
BYBLOCK
 62
0
100
AcDbLine
 10
84.56823932787900
 20
112.4950966766263
 30
0.0000000000000000
 11
58.56823932787894
 21
112.4950966766263
 31
0.0000000000000000
  0
INSERT
  5
372
100
AcDbEntity
  8
MAIN0
  6
BYBLOCK
 62
0
100
AcDbBlockReference
  2
_OPEN
 10
86.56823932787900
 20
112.4950966766263
 30
0.0000000000000000
 41
2.000000000000000
 42
2.000000000000000
 43
2.000000000000000
 50
360.0000000000000
  0
INSERT
  5
373
100
AcDbEntity
  8
MAIN0
  6
BYBLOCK
 62
0
100
AcDbBlockReference
  2
_OPEN
 10
56.56823932787894
 20
112.4950966766263
 30
0.0000000000000000
 41
2.000000000000000
 42
2.000000000000000
 43
2.000000000000000
 50
180.0000000000000
  0
LINE
  5
374
100
AcDbEntity
  8
MAIN0
  6
BYBLOCK
 62
0
100
AcDbLine
 10
56.56823932787894
 20
121.8146663698129
 30
0.0000000000000000
 11
56.56823932787894
 21
110.4950966766263
 31
0.0000000000000000
  0
MTEXT
  5
375
100
AcDbEntity
  8
MAIN0
  6
BYBLOCK
 62
0
100
AcDbMText
 10
71.56823932787897
 20
114.5450966289426
 30
0.0000000000000000
 40
3.099999904632568
 41
0.0000000000000000
 71
     5
 72
     1
  1
\A1;30
 11
1.000000000000000
 21
0.0000000000000000
 31
0.0000000000000000
  7
STANDARD
  0
ENDBLK
  5
376
100
AcDbEntity
  8
MAIN0
  6
CONTINUOUS
 62
3
100
AcDbBlockEnd
  0
BLOCK
  5
378
100
AcDbEntity
  8
MAIN0
  6
CONTINUOUS
 62
3
100
AcDbBlockBegin
  2
*D32
 70
    65
 10
0.0
 20
0.0
 30
0.0
  0
LINE
  5
379
100
AcDbEntity
  8
MAIN0
  6
BYBLOCK
 62
0
100
AcDbLine
 10
99.56823932787904
 20
107.8426050900655
 30
0.0000000000000000
 11
58.56823932787826
 21
107.8426050900655
 31
0.0000000000000000
  0
INSERT
  5
37A
100
AcDbEntity
  8
MAIN0
  6
BYBLOCK
 62
0
100
AcDbBlockReference
  2
_OPEN
 10
101.5682393278790
 20
107.8426050900655
 30
0.0000000000000000
 41
2.000000000000000
 42
2.000000000000000
 43
2.000000000000000
 50
360.0000000000000
  0
INSERT
  5
37B
100
AcDbEntity
  8
MAIN0
  6
BYBLOCK
 62
0
100
AcDbBlockReference
  2
_OPEN
 10
56.56823932787826
 20
107.8426050900655
 30
0.0000000000000000
 41
2.000000000000000
 42
2.000000000000000
 43
2.000000000000000
 50
180.0000000000000
  0
MTEXT
  5
37C
100
AcDbEntity
  8
MAIN0
  6
BYBLOCK
 62
0
100
AcDbMText
 10
79.06823932787864
 20
109.8926050423818
 30
0.0000000000000000
 40
3.099999904632568
 41
0.0000000000000000
 71
     5
 72
     1
  1
\A1;45
 11
1.000000000000000
 21
0.0000000000000000
 31
0.0000000000000000
  7
STANDARD
  0
ENDBLK
  5
37D
100
AcDbEntity
  8
MAIN0
  6
CONTINUOUS
 62
3
100
AcDbBlockEnd
  0
BLOCK
  5
382
100
AcDbEntity
  8
MAIN0
  6
CONTINUOUS
 62
3
100
AcDbBlockBegin
  2
*D33
 70
    65
 10
0.0
 20
0.0
 30
0.0
  0
LINE
  5
383
100
AcDbEntity
  8
MAIN0
  6
BYBLOCK
 62
0
100
AcDbLine
 10
126.5682393278790
 20
192.8200179179022
 30
0.0000000000000000
 11
122.0682393278790
 21
192.8200179179022
 31
0.0000000000000000
  0
INSERT
  5
384
100
AcDbEntity
  8
MAIN0
  6
BYBLOCK
 62
0
100
AcDbBlockReference
  2
_OPEN
 10
126.5682393278790
 20
192.8200179179022
 30
0.0000000000000000
 41
2.000000000000000
 42
2.000000000000000
 43
2.000000000000000
 50
180.0000000000000
  0
INSERT
  5
385
100
AcDbEntity
  8
MAIN0
  6
BYBLOCK
 62
0
100
AcDbBlockReference
  2
_OPEN
 10
122.0682393278790
 20
192.8200179179022
 30
0.0000000000000000
 41
2.000000000000000
 42
2.000000000000000
 43
2.000000000000000
 50
360.0000000000000
  0
LINE
  5
386
100
AcDbEntity
  8
MAIN0
  6
BYBLOCK
 62
0
100
AcDbLine
 10
128.5682393278790
 20
192.8200179179022
 30
0.0000000000000000
 11
129.5682393278790
 21
192.8200179179022
 31
0.0000000000000000
  0
LINE
  5
387
100
AcDbEntity
  8
MAIN0
  6
BYBLOCK
 62
0
100
AcDbLine
 10
120.0682393278790
 20
192.8200179179022
 30
0.0000000000000000
 11
106.0547963347149
 21
192.8200179179022
 31
0.0000000000000000
  0
MTEXT
  5
388
100
AcDbEntity
  8
MAIN0
  6
BYBLOCK
 62
0
100
AcDbMText
 10
111.8547972018273
 20
194.8700178702185
 30
0.0000000000000000
 40
3.099999904632568
 41
0.0000000000000000
 71
     5
 72
     1
  1
\A1;MIN4.5
 11
1.000000000000000
 21
0.0000000000000000
 31
0.0000000000000000
  7
STANDARD
  0
ENDBLK
  5
389
100
AcDbEntity
  8
MAIN0
  6
CONTINUOUS
 62
3
100
AcDbBlockEnd
  0
BLOCK
  5
38B
100
AcDbEntity
  8
MAIN0
  6
CONTINUOUS
 62
3
100
AcDbBlockBegin
  2
*D34
 70
    65
 10
0.0
 20
0.0
 30
0.0
  0
LINE
  5
38C
100
AcDbEntity
  8
MAIN0
  6
BYBLOCK
 62
0
100
AcDbLine
 10
124.5682393278791
 20
171.5188283789944
 30
0.0000000000000000
 11
114.0682393278790
 21
171.5188283789944
 31
0.0000000000000000
  0
INSERT
  5
38D
100
AcDbEntity
  8
MAIN0
  6
BYBLOCK
 62
0
100
AcDbBlockReference
  2
_OPEN
 10
126.5682393278791
 20
171.5188283789944
 30
0.0000000000000000
 41
2.000000000000000
 42
2.000000000000000
 43
2.000000000000000
 50
360.0000000000000
  0
INSERT
  5
38E
100
AcDbEntity
  8
MAIN0
  6
BYBLOCK
 62
0
100
AcDbBlockReference
  2
_OPEN
 10
112.0682393278790
 20
171.5188283789944
 30
0.0000000000000000
 41
2.000000000000000
 42
2.000000000000000
 43
2.000000000000000
 50
180.0000000000000
  0
LINE
  5
38F
100
AcDbEntity
  8
MAIN0
  6
BYBLOCK
 62
0
100
AcDbLine
 10
112.0682393278790
 20
171.5188283789944
 30
0.0000000000000000
 11
99.66202747485170
 21
171.5188283789944
 31
0.0000000000000000
  0
LINE
  5
390
100
AcDbEntity
  8
MAIN0
  6
BYBLOCK
 62
0
100
AcDbLine
 10
112.0682393278790
 20
170.0146663936540
 30
0.0000000000000000
 11
112.0682393278790
 21
173.5188283789944
 31
0.0000000000000000
  0
MTEXT
  5
391
100
AcDbEntity
  8
MAIN0
  6
BYBLOCK
 62
0
100
AcDbMText
 10
101.7620275922295
 20
173.5688283313106
 30
0.0000000000000000
 40
3.099999904632568
 41
0.0000000000000000
 71
     5
 72
     1
  1
\A1;14
 11
1.000000000000000
 21
0.0000000000000000
 31
0.0000000000000000
  7
STANDARD
  0
ENDBLK
  5
392
100
AcDbEntity
  8
MAIN0
  6
CONTINUOUS
 62
3
100
AcDbBlockEnd
  0
BLOCK
  5
39C
100
AcDbEntity
  8
MAIN0
  6
CONTINUOUS
 62
3
100
AcDbBlockBegin
  2
*D35
 70
    65
 10
0.0
 20
0.0
 30
0.0
  0
LINE
  5
39D
100
AcDbEntity
  8
MAIN0
  6
BYBLOCK
 62
0
100
AcDbLine
 10
40.76823931595801
 20
171.1146663818668
 30
0.0000000000000000
 11
30.35505463620464
 21
171.1146663818668
 31
0.0000000000000000
  0
LINE
  5
39E
100
AcDbEntity
  8
MAIN0
  6
BYBLOCK
 62
0
100
AcDbLine
 10
32.35505463620464
 20
169.1146663818668
 30
0.0000000000000000
 11
32.35505463620464
 21
159.1146663818668
 31
0.0000000000000000
  0
INSERT
  5
39F
100
AcDbEntity
  8
MAIN0
  6
BYBLOCK
 62
0
100
AcDbBlockReference
  2
_OPEN
 10
32.35505463620464
 20
171.1146663818668
 30
0.0000000000000000
 41
2.000000000000000
 42
2.000000000000000
 43
2.000000000000000
 50
90.00000000000000
  0
INSERT
  5
3A0
100
AcDbEntity
  8
MAIN0
  6
BYBLOCK
 62
0
100
AcDbBlockReference
  2
_OPEN
 10
32.35505463620464
 20
157.1146663818668
 30
0.0000000000000000
 41
2.000000000000000
 42
2.000000000000000
 43
2.000000000000000
 50
270.0000000000000
  0
LINE
  5
3A1
100
AcDbEntity
  8
MAIN0
  6
BYBLOCK
 62
0
100
AcDbLine
 10
40.76823931595801
 20
157.1146663818668
 30
0.0000000000000000
 11
30.35505463620464
 21
157.1146663818668
 31
0.0000000000000000
  0
MTEXT
  5
3A2
100
AcDbEntity
  8
MAIN0
  6
BYBLOCK
 62
0
100
AcDbMText
 10
30.30505468388836
 20
164.1146663818668
 30
0.0000000000000000
 40
3.099999904632568
 41
0.0000000000000000
 71
     5
 72
     1
  1
\A1;\U+220514
 11
6.123233995736766e-017
 21
1.000000000000000
 31
0.0000000000000000
  7
STANDARD
  0
ENDBLK
  5
3A3
100
AcDbEntity
  8
MAIN0
  6
CONTINUOUS
 62
3
100
AcDbBlockEnd
  0
BLOCK
  5
3A7
100
AcDbEntity
  8
MAIN0
  6
CONTINUOUS
 62
3
100
AcDbBlockBegin
  2
*D36
 70
    65
 10
0.0
 20
0.0
 30
0.0
  0
LINE
  5
3A8
100
AcDbEntity
  8
MAIN0
  6
BYBLOCK
 62
0
100
AcDbLine
 10
41.56823932787894
 20
123.3146663698127
 30
0.0000000000000000
 11
41.56823932787899
 21
115.4922192081075
 31
0.0000000000000000
  0
LINE
  5
3A9
100
AcDbEntity
  8
MAIN0
  6
BYBLOCK
 62
0
100
AcDbLine
 10
43.56823932787899
 20
117.4922192081075
 30
0.0000000000000000
 11
69.56823932787918
 21
117.4922192081075
 31
0.0000000000000000
  0
INSERT
  5
3AA
100
AcDbEntity
  8
MAIN0
  6
BYBLOCK
 62
0
100
AcDbBlockReference
  2
_OPEN
 10
41.56823932787899
 20
117.4922192081075
 30
0.0000000000000000
 41
2.000000000000000
 42
2.000000000000000
 43
2.000000000000000
 50
180.0000000000000
  0
INSERT
  5
3AB
100
AcDbEntity
  8
MAIN0
  6
BYBLOCK
 62
0
100
AcDbBlockReference
  2
_OPEN
 10
71.56823932787918
 20
117.4922192081075
 30
0.0000000000000000
 41
2.000000000000000
 42
2.000000000000000
 43
2.000000000000000
 50
0.0000000000000000
  0
LINE
  5
3AC
100
AcDbEntity
  8
MAIN0
  6
BYBLOCK
 62
0
100
AcDbLine
 10
71.56823932787918
 20
117.5911433847468
 30
0.0000000000000000
 11
71.56823932787918
 21
116.5608385189634
 31
0.0000000000000000
  0
MTEXT
  5
3AD
100
AcDbEntity
  8
MAIN0
  6
BYBLOCK
 62
0
100
AcDbMText
 10
61.94579750011765
 20
119.5422191604238
 30
0.0000000000000000
 40
3.099999904632568
 41
0.0000000000000000
 71
     5
 72
     1
  1
\A1;30
 11
1.000000000000000
 21
0.0000000000000000
 31
0.0000000000000000
  7
STANDARD
  0
ENDBLK
  5
3AE
100
AcDbEntity
  8
MAIN0
  6
CONTINUOUS
 62
3
100
AcDbBlockEnd
  0
BLOCK
  5
3B0
100
AcDbEntity
  8
MAIN0
  6
CONTINUOUS
 62
3
100
AcDbBlockBegin
  2
*D37
 70
    65
 10
0.0
 20
0.0
 30
0.0
  0
LINE
  5
3B1
100
AcDbEntity
  8
MAIN0
  6
BYBLOCK
 62
0
100
AcDbLine
 10
41.56823932787894
 20
123.3146663698127
 30
0.0000000000000000
 11
41.56823932787894
 21
101.0177980310444
 31
0.0000000000000000
  0
LINE
  5
3B2
100
AcDbEntity
  8
MAIN0
  6
BYBLOCK
 62
0
100
AcDbLine
 10
43.56823932787894
 20
103.0177980310444
 30
0.0000000000000000
 11
125.0682393278790
 21
103.0177980310444
 31
0.0000000000000000
  0
INSERT
  5
3B3
100
AcDbEntity
  8
MAIN0
  6
BYBLOCK
 62
0
100
AcDbBlockReference
  2
_OPEN
 10
41.56823932787894
 20
103.0177980310444
 30
0.0000000000000000
 41
2.000000000000000
 42
2.000000000000000
 43
2.000000000000000
 50
180.0000000000000
  0
INSERT
  5
3B4
100
AcDbEntity
  8
MAIN0
  6
BYBLOCK
 62
0
100
AcDbBlockReference
  2
_OPEN
 10
127.0682393278790
 20
103.0177980310444
 30
0.0000000000000000
 41
2.000000000000000
 42
2.000000000000000
 43
2.000000000000000
 50
0.0000000000000000
  0
LINE
  5
3B5
100
AcDbEntity
  8
MAIN0
  6
BYBLOCK
 62
0
100
AcDbLine
 10
127.0682393278790
 20
143.5646663698128
 30
0.0000000000000000
 11
127.0682393278790
 21
101.0177980310444
 31
0.0000000000000000
  0
MTEXT
  5
3B6
100
AcDbEntity
  8
MAIN0
  6
BYBLOCK
 62
0
100
AcDbMText
 10
84.31823932787896
 20
105.0677979833607
 30
0.0000000000000000
 40
3.099999904632568
 41
0.0000000000000000
 71
     5
 72
     1
  1
\A1;85.5
 11
1.000000000000000
 21
0.0000000000000000
 31
0.0000000000000000
  7
STANDARD
  0
ENDBLK
  5
3B7
100
AcDbEntity
  8
MAIN0
  6
CONTINUOUS
 62
3
100
AcDbBlockEnd
  0
BLOCK
  5
3B9
100
AcDbEntity
  8
MAIN0
  6
CONTINUOUS
 62
3
100
AcDbBlockBegin
  2
*D38
 70
    65
 10
0.0
 20
0.0
 30
0.0
  0
LINE
  5
3BA
100
AcDbEntity
  8
MAIN0
  6
BYBLOCK
 62
0
100
AcDbLine
 10
41.56823932787894
 20
123.3146663698127
 30
0.0000000000000000
 11
41.56823932787894
 21
110.4950966766263
 31
0.0000000000000000
  0
LINE
  5
3BB
100
AcDbEntity
  8
MAIN0
  6
BYBLOCK
 62
0
100
AcDbLine
 10
43.56823932787894
 20
112.4950966766263
 30
0.0000000000000000
 11
54.56823932787894
 21
112.4950966766263
 31
0.0000000000000000
  0
INSERT
  5
3BC
100
AcDbEntity
  8
MAIN0
  6
BYBLOCK
 62
0
100
AcDbBlockReference
  2
_OPEN
 10
41.56823932787894
 20
112.4950966766263
 30
0.0000000000000000
 41
2.000000000000000
 42
2.000000000000000
 43
2.000000000000000
 50
180.0000000000000
  0
INSERT
  5
3BD
100
AcDbEntity
  8
MAIN0
  6
BYBLOCK
 62
0
100
AcDbBlockReference
  2
_OPEN
 10
56.56823932787894
 20
112.4950966766263
 30
0.0000000000000000
 41
2.000000000000000
 42
2.000000000000000
 43
2.000000000000000
 50
0.0000000000000000
  0
LINE
  5
3BE
100
AcDbEntity
  8
MAIN0
  6
BYBLOCK
 62
0
100
AcDbLine
 10
56.56823932787894
 20
121.8146663698129
 30
0.0000000000000000
 11
56.56823932787894
 21
110.4950966766263
 31
0.0000000000000000
  0
MTEXT
  5
3BF
100
AcDbEntity
  8
MAIN0
  6
BYBLOCK
 62
0
100
AcDbMText
 10
49.06823932787894
 20
114.5450966289426
 30
0.0000000000000000
 40
3.099999904632568
 41
0.0000000000000000
 71
     5
 72
     1
  1
\A1;15
 11
1.000000000000000
 21
0.0000000000000000
 31
0.0000000000000000
  7
STANDARD
  0
ENDBLK
  5
3C0
100
AcDbEntity
  8
MAIN0
  6
CONTINUOUS
 62
3
100
AcDbBlockEnd
  0
BLOCK
  5
3C2
100
AcDbEntity
  8
MAIN0
  6
CONTINUOUS
 62
3
100
AcDbBlockBegin
  2
*D39
 70
    65
 10
0.0
 20
0.0
 30
0.0
  0
LINE
  5
3C3
100
AcDbEntity
  8
MAIN0
  6
BYBLOCK
 62
0
100
AcDbLine
 10
126.5682393278791
 20
160.3146663698121
 30
0.0000000000000000
 11
126.5682393278791
 21
151.0241864221022
 31
0.0000000000000000
  0
LINE
  5
3C4
100
AcDbEntity
  8
MAIN0
  6
BYBLOCK
 62
0
100
AcDbLine
 10
126.5682393278791
 20
153.0241864221022
 30
0.0000000000000000
 11
127.0682393278790
 21
153.0241864221022
 31
0.0000000000000000
  0
INSERT
  5
3C5
100
AcDbEntity
  8
MAIN0
  6
BYBLOCK
 62
0
100
AcDbBlockReference
  2
_OPEN
 10
126.5682393278791
 20
153.0241864221022
 30
0.0000000000000000
 41
2.000000000000000
 42
2.000000000000000
 43
2.000000000000000
 50
0.0000000000000000
  0
INSERT
  5
3C6
100
AcDbEntity
  8
MAIN0
  6
BYBLOCK
 62
0
100
AcDbBlockReference
  2
_OPEN
 10
127.0682393278790
 20
153.0241864221022
 30
0.0000000000000000
 41
2.000000000000000
 42
2.000000000000000
 43
2.000000000000000
 50
180.0000000000000
  0
LINE
  5
3C7
100
AcDbEntity
  8
MAIN0
  6
BYBLOCK
 62
0
100
AcDbLine
 10
124.5682393278791
 20
153.0241864221022
 30
0.0000000000000000
 11
123.5682393278791
 21
153.0241864221022
 31
0.0000000000000000
  0
LINE
  5
3C8
100
AcDbEntity
  8
MAIN0
  6
BYBLOCK
 62
0
100
AcDbLine
 10
129.0682393278790
 20
153.0241864221022
 30
0.0000000000000000
 11
134.5064626898480
 21
153.0241864221022
 31
0.0000000000000000
  0
MTEXT
  5
3C9
100
AcDbEntity
  8
MAIN0
  6
BYBLOCK
 62
0
100
AcDbMText
 10
131.8564628307306
 20
155.0741863744185
 30
0.0000000000000000
 40
3.099999904632568
 41
0.0000000000000000
 71
     5
 72
     1
  1
\A1;0.5
 11
1.000000000000000
 21
0.0000000000000000
 31
0.0000000000000000
  7
STANDARD
  0
ENDBLK
  5
3CA
100
AcDbEntity
  8
MAIN0
  6
CONTINUOUS
 62
3
100
AcDbBlockEnd
  0
BLOCK
  5
3CC
100
AcDbEntity
  8
MAIN0
  6
CONTINUOUS
 62
3
100
AcDbBlockBegin
  2
*D40
 70
    65
 10
0.0
 20
0.0
 30
0.0
  0
LINE
  5
3CD
100
AcDbEntity
  8
MAIN0
  6
BYBLOCK
 62
0
100
AcDbLine
 10
127.0682393278790
 20
148.3422184907273
 30
0.0000000000000000
 11
126.0682393278791
 21
148.3422184907273
 31
0.0000000000000000
  0
INSERT
  5
3CE
100
AcDbEntity
  8
MAIN0
  6
BYBLOCK
 62
0
100
AcDbBlockReference
  2
_OPEN
 10
127.0682393278790
 20
148.3422184907273
 30
0.0000000000000000
 41
2.000000000000000
 42
2.000000000000000
 43
2.000000000000000
 50
180.0000000000000
  0
INSERT
  5
3CF
100
AcDbEntity
  8
MAIN0
  6
BYBLOCK
 62
0
100
AcDbBlockReference
  2
_OPEN
 10
126.0682393278791
 20
148.3422184907273
 30
0.0000000000000000
 41
2.000000000000000
 42
2.000000000000000
 43
2.000000000000000
 50
360.0000000000000
  0
LINE
  5
3D0
100
AcDbEntity
  8
MAIN0
  6
BYBLOCK
 62
0
100
AcDbLine
 10
129.0682393278790
 20
148.3422184907273
 30
0.0000000000000000
 11
131.9700642790508
 21
148.3422184907273
 31
0.0000000000000000
  0
LINE
  5
3D1
100
AcDbEntity
  8
MAIN0
  6
BYBLOCK
 62
0
100
AcDbLine
 10
124.0682393278791
 20
148.3422184907273
 30
0.0000000000000000
 11
123.0682393278791
 21
148.3422184907273
 31
0.0000000000000000
  0
LINE
  5
3D2
100
AcDbEntity
  8
MAIN0
  6
BYBLOCK
 62
0
100
AcDbLine
 10
126.0682393278791
 20
157.3146663698119
 30
0.0000000000000000
 11
126.0682393278791
 21
146.3422184907273
 31
0.0000000000000000
  0
MTEXT
  5
3D3
100
AcDbEntity
  8
MAIN0
  6
BYBLOCK
 62
0
100
AcDbMText
 10
130.9200641654352
 20
150.3922184430436
 30
0.0000000000000000
 40
3.099999904632568
 41
0.0000000000000000
 71
     5
 72
     1
  1
\A1;1
 11
1.000000000000000
 21
0.0000000000000000
 31
0.0000000000000000
  7
STANDARD
  0
ENDBLK
  5
3D4
100
AcDbEntity
  8
MAIN0
  6
CONTINUOUS
 62
3
100
AcDbBlockEnd
  0
BLOCK
  5
3D6
100
AcDbEntity
  8
MAIN0
  6
CONTINUOUS
 62
3
100
AcDbBlockBegin
  2
*D41
 70
    65
 10
0.0
 20
0.0
 30
0.0
  0
LINE
  5
3D7
100
AcDbEntity
  8
MAIN0
  6
BYBLOCK
 62
0
100
AcDbLine
 10
160.0496894227400
 20
198.1146663817336
 30
0.0000000000000000
 11
168.5682393278790
 21
198.1146663817336
 31
0.0000000000000000
  0
LINE
  5
3D8
100
AcDbEntity
  8
MAIN0
  6
BYBLOCK
 62
0
100
AcDbLine
 10
166.5682393278790
 20
196.1146663817336
 30
0.0000000000000000
 11
166.5682393278790
 21
159.6146663817330
 31
0.0000000000000000
  0
INSERT
  5
3D9
100
AcDbEntity
  8
MAIN0
  6
BYBLOCK
 62
0
100
AcDbBlockReference
  2
_OPEN
 10
166.5682393278790
 20
198.1146663817336
 30
0.0000000000000000
 41
2.000000000000000
 42
2.000000000000000
 43
2.000000000000000
 50
90.00000000000000
  0
INSERT
  5
3DA
100
AcDbEntity
  8
MAIN0
  6
BYBLOCK
 62
0
100
AcDbBlockReference
  2
_OPEN
 10
166.5682393278790
 20
157.6146663817330
 30
0.0000000000000000
 41
2.000000000000000
 42
2.000000000000000
 43
2.000000000000000
 50
270.0000000000000
  0
LINE
  5
3DB
100
AcDbEntity
  8
MAIN0
  6
BYBLOCK
 62
0
100
AcDbLine
 10
127.8682393397999
 20
157.6146663817330
 30
0.0000000000000000
 11
168.5682393278790
 21
157.6146663817330
 31
0.0000000000000000
  0
MTEXT
  5
3DC
100
AcDbEntity
  8
MAIN0
  6
BYBLOCK
 62
0
100
AcDbMText
 10
164.5182393755628
 20
177.8646663817333
 30
0.0000000000000000
 40
3.099999904632568
 41
0.0000000000000000
 71
     5
 72
     1
  1
\A1;40.5
 11
6.123233995736766e-017
 21
1.000000000000000
 31
0.0000000000000000
  7
STANDARD
  0
ENDBLK
  5
3DD
100
AcDbEntity
  8
MAIN0
  6
CONTINUOUS
 62
3
100
AcDbBlockEnd
  0
BLOCK
  5
3DF
100
AcDbEntity
  8
MAIN0
  6
CONTINUOUS
 62
3
100
AcDbBlockBegin
  2
*D42
 70
    65
 10
0.0
 20
0.0
 30
0.0
  0
LINE
  5
3E0
100
AcDbEntity
  8
MAIN0
  6
BYBLOCK
 62
0
100
AcDbLine
 10
119.3682393397999
 20
143.0646663817337
 30
0.0000000000000000
 11
196.0682393278790
 21
143.0646663817337
 31
0.0000000000000000
  0
LINE
  5
3E1
100
AcDbEntity
  8
MAIN0
  6
BYBLOCK
 62
0
100
AcDbLine
 10
194.0682393278790
 20
145.0646663817337
 30
0.0000000000000000
 11
194.0682393278790
 21
251.1646663817336
 31
0.0000000000000000
  0
INSERT
  5
3E2
100
AcDbEntity
  8
MAIN0
  6
BYBLOCK
 62
0
100
AcDbBlockReference
  2
_OPEN
 10
194.0682393278790
 20
143.0646663817337
 30
0.0000000000000000
 41
2.000000000000000
 42
2.000000000000000
 43
2.000000000000000
 50
270.0000000000000
  0
INSERT
  5
3E3
100
AcDbEntity
  8
MAIN0
  6
BYBLOCK
 62
0
100
AcDbBlockReference
  2
_OPEN
 10
194.0682393278790
 20
253.1646663817336
 30
0.0000000000000000
 41
2.000000000000000
 42
2.000000000000000
 43
2.000000000000000
 50
90.00000000000000
  0
LINE
  5
3E4
100
AcDbEntity
  8
MAIN0
  6
BYBLOCK
 62
0
100
AcDbLine
 10
119.3182393397999
 20
253.1646663817336
 30
0.0000000000000000
 11
196.0682393278790
 21
253.1646663817336
 31
0.0000000000000000
  0
MTEXT
  5
3E5
100
AcDbEntity
  8
MAIN0
  6
BYBLOCK
 62
0
100
AcDbMText
 10
192.0182393755628
 20
198.1146663407554
 30
0.0000000000000000
 40
3.099999904632568
 41
0.0000000000000000
 71
     5
 72
     1
  1
\A1;\U+2205110.1\H0.903226x;\S 0^ -0.1;
 11
6.123233995736766e-017
 21
1.000000000000000
 31
0.0000000000000000
  7
STANDARD
  0
ENDBLK
  5
3E6
100
AcDbEntity
  8
MAIN0
  6
CONTINUOUS
 62
3
100
AcDbBlockEnd
  0
BLOCK
  5
3E8
100
AcDbEntity
  8
MAIN0
  6
CONTINUOUS
 62
3
100
AcDbBlockBegin
  2
D43
 70
    64
 10
0.0
 20
0.0
 30
0.0
  0
LINE
  5
3E9
100
AcDbEntity
  8
MAIN0
  6
BYBLOCK
 62
0
100
AcDbLine
 10
27.31854991705995
 20
13.42197367871563
 30
0.0000000000000000
 11
27.31854991705995
 21
41.99999999999776
 31
0.0000000000000000
  0
LINE
  5
3EA
100
AcDbEntity
  8
MAIN0
  6
BYBLOCK
 62
0
100
AcDbLine
 10
26.71854989321810
 20
39.99999999999776
 30
0.0000000000000000
 11
27.31854991705995
 21
41.99999999999776
 31
0.0000000000000000
  0
LINE
  5
3EB
100
AcDbEntity
  8
MAIN0
  6
BYBLOCK
 62
0
100
AcDbLine
 10
27.31854991705995
 20
41.99999999999776
 30
0.0000000000000000
 11
27.91854994090181
 21
39.99999999999776
 31
0.0000000000000000
  0
LINE
  5
3EC
100
AcDbEntity
  8
MAIN0
  6
BYBLOCK
 62
0
100
AcDbLine
 10
-9.881450071019170
 20
41.99999999999776
 30
0.0000000000000000
 11
29.31854991705995
 21
41.99999999999776
 31
0.0000000000000000
  0
MTEXT
  5
3ED
100
AcDbEntity
  8
MAIN0
  6
BYBLOCK
 62
0
100
AcDbMText
 10
25.26854996474367
 20
27.15957996253800
 30
0.0000000000000000
 40
3.099999904632568
 41
0.0000000000000000
 71
     5
 72
     1
  1
\A1;\U+220584H6
 11
6.123233995736766e-017
 21
1.000000000000000
 31
0.0000000000000000
  7
STANDARD
  0
ENDBLK
  5
3EE
100
AcDbEntity
  8
MAIN0
  6
CONTINUOUS
 62
3
100
AcDbBlockEnd
  0
BLOCK
  5
3F0
100
AcDbEntity
  8
MAIN0
  6
CONTINUOUS
 62
3
100
AcDbBlockBegin
  2
*D44
 70
    65
 10
0.0
 20
0.0
 30
0.0
  0
LINE
  5
3F1
100
AcDbEntity
  8
MAIN0
  6
BYBLOCK
 62
0
100
AcDbLine
 10
144.5682393278789
 20
242.5214856104536
 30
0.0000000000000000
 11
148.5682393278790
 21
242.5214856104536
 31
0.0000000000000000
  0
INSERT
  5
3F2
100
AcDbEntity
  8
MAIN0
  6
BYBLOCK
 62
0
100
AcDbBlockReference
  2
_OPEN
 10
144.5682393278789
 20
242.5214856104536
 30
0.0000000000000000
 41
2.000000000000000
 42
2.000000000000000
 43
2.000000000000000
 50
0.0000000000000000
  0
INSERT
  5
3F3
100
AcDbEntity
  8
MAIN0
  6
BYBLOCK
 62
0
100
AcDbBlockReference
  2
_OPEN
 10
148.5682393278790
 20
242.5214856104536
 30
0.0000000000000000
 41
2.000000000000000
 42
2.000000000000000
 43
2.000000000000000
 50
180.0000000000000
  0
LINE
  5
3F4
100
AcDbEntity
  8
MAIN0
  6
BYBLOCK
 62
0
100
AcDbLine
 10
142.5682393278789
 20
242.5214856104536
 30
0.0000000000000000
 11
141.5682393278789
 21
242.5214856104536
 31
0.0000000000000000
  0
LINE
  5
3F5
100
AcDbEntity
  8
MAIN0
  6
BYBLOCK
 62
0
100
AcDbLine
 10
150.5682393278790
 20
242.5214856104536
 30
0.0000000000000000
 11
155.7707987990094
 21
242.5214856104536
 31
0.0000000000000000
  0
LINE
  5
3F6
100
AcDbEntity
  8
MAIN0
  6
BYBLOCK
 62
0
100
AcDbLine
 10
148.5682393278790
 20
245.3146663698103
 30
0.0000000000000000
 11
148.5682393278790
 21
240.5214856104536
 31
0.0000000000000000
  0
MTEXT
  5
3F7
100
AcDbEntity
  8
MAIN0
  6
BYBLOCK
 62
0
100
AcDbMText
 10
154.7207990128943
 20
244.5714855627699
 30
0.0000000000000000
 40
3.099999904632568
 41
0.0000000000000000
 71
     5
 72
     1
  1
\A1;4
 11
1.000000000000000
 21
0.0000000000000000
 31
0.0000000000000000
  7
STANDARD
  0
ENDBLK
  5
3F8
100
AcDbEntity
  8
MAIN0
  6
CONTINUOUS
 62
3
100
AcDbBlockEnd
  0
BLOCK
  5
3FA
100
AcDbEntity
  8
MAIN0
  6
CONTINUOUS
 62
3
100
AcDbBlockBegin
  2
*D45
 70
    65
 10
0.0
 20
0.0
 30
0.0
  0
LINE
  5
3FB
100
AcDbEntity
  8
MAIN0
  6
BYBLOCK
 62
0
100
AcDbLine
 10
41.56823932787894
 20
272.9146663936546
 30
0.0000000000000000
 11
41.56823932787894
 21
282.6146663817336
 31
0.0000000000000000
  0
LINE
  5
3FC
100
AcDbEntity
  8
MAIN0
  6
BYBLOCK
 62
0
100
AcDbLine
 10
43.56823932787894
 20
280.6146663817336
 30
0.0000000000000000
 11
142.5682393278790
 21
280.6146663817336
 31
0.0000000000000000
  0
INSERT
  5
3FD
100
AcDbEntity
  8
MAIN0
  6
BYBLOCK
 62
0
100
AcDbBlockReference
  2
_OPEN
 10
41.56823932787894
 20
280.6146663817336
 30
0.0000000000000000
 41
2.000000000000000
 42
2.000000000000000
 43
2.000000000000000
 50
180.0000000000000
  0
INSERT
  5
3FE
100
AcDbEntity
  8
MAIN0
  6
BYBLOCK
 62
0
100
AcDbBlockReference
  2
_OPEN
 10
144.5682393278790
 20
280.6146663817336
 30
0.0000000000000000
 41
2.000000000000000
 42
2.000000000000000
 43
2.000000000000000
 50
0.0000000000000000
  0
LINE
  5
3FF
100
AcDbEntity
  8
MAIN0
  6
BYBLOCK
 62
0
100
AcDbLine
 10
144.5682393278790
 20
252.6646663936545
 30
0.0000000000000000
 11
144.5682393278790
 21
282.6146663817336
 31
0.0000000000000000
  0
MTEXT
  5
400
100
AcDbEntity
  8
MAIN0
  6
BYBLOCK
 62
0
100
AcDbMText
 10
93.06823932787899
 20
282.6646663340499
 30
0.0000000000000000
 40
3.099999904632568
 41
0.0000000000000000
 71
     5
 72
     1
  1
\A1;103
 11
1.000000000000000
 21
0.0000000000000000
 31
0.0000000000000000
  7
STANDARD
  0
ENDBLK
  5
401
100
AcDbEntity
  8
MAIN0
  6
CONTINUOUS
 62
3
100
AcDbBlockEnd
  0
BLOCK
  5
403
100
AcDbEntity
  8
MAIN0
  6
CONTINUOUS
 62
3
100
AcDbBlockBegin
  2
*D46
 70
    65
 10
0.0
 20
0.0
 30
0.0
  0
LINE
  5
404
100
AcDbEntity
  8
MAIN0
  6
BYBLOCK
 62
0
100
AcDbLine
 10
144.5682393278790
 20
252.6646663936545
 30
0.0000000000000000
 11
144.5682393278790
 21
282.6146663817336
 31
0.0000000000000000
  0
LINE
  5
405
100
AcDbEntity
  8
MAIN0
  6
BYBLOCK
 62
0
100
AcDbLine
 10
146.5682393278790
 20
280.6146663817336
 30
0.0000000000000000
 11
149.5682393278790
 21
280.6146663817336
 31
0.0000000000000000
  0
INSERT
  5
406
100
AcDbEntity
  8
MAIN0
  6
BYBLOCK
 62
0
100
AcDbBlockReference
  2
_OPEN
 10
144.5682393278790
 20
280.6146663817336
 30
0.0000000000000000
 41
2.000000000000000
 42
2.000000000000000
 43
2.000000000000000
 50
180.0000000000000
  0
INSERT
  5
407
100
AcDbEntity
  8
MAIN0
  6
BYBLOCK
 62
0
100
AcDbBlockReference
  2
_OPEN
 10
151.5682393278790
 20
280.6146663817336
 30
0.0000000000000000
 41
2.000000000000000
 42
2.000000000000000
 43
2.000000000000000
 50
0.0000000000000000
  0
LINE
  5
408
100
AcDbEntity
  8
MAIN0
  6
BYBLOCK
 62
0
100
AcDbLine
 10
151.5682393278790
 20
280.6146663817336
 30
0.0000000000000000
 11
162.8182393278790
 21
280.6146663817336
 31
0.0000000000000000
  0
LINE
  5
409
100
AcDbEntity
  8
MAIN0
  6
BYBLOCK
 62
0
100
AcDbLine
 10
151.5682393278790
 20
252.4814055217675
 30
0.0000000000000000
 11
151.5682393278790
 21
282.6146663817336
 31
0.0000000000000000
  0
MTEXT
  5
40A
100
AcDbEntity
  8
MAIN0
  6
BYBLOCK
 62
0
100
AcDbMText
 10
157.5682393278790
 20
282.6646663340499
 30
0.0000000000000000
 40
3.099999904632568
 41
0.0000000000000000
 71
     5
 72
     1
  1
\A1;MAX 7
 11
1.000000000000000
 21
0.0000000000000000
 31
0.0000000000000000
  7
STANDARD
  0
ENDBLK
  5
40B
100
AcDbEntity
  8
MAIN0
  6
CONTINUOUS
 62
3
100
AcDbBlockEnd
  0
BLOCK
  5
40D
100
AcDbEntity
  8
MAIN0
  6
CONTINUOUS
 62
3
100
AcDbBlockBegin
  2
*D47
 70
    65
 10
0.0
 20
0.0
 30
0.0
  0
LINE
  5
40E
100
AcDbEntity
  8
MAIN0
  6
BYBLOCK
 62
0
100
AcDbLine
 10
146.5682393278790
 20
210.2873497851465
 30
0.0000000000000000
 11
136.5682393278791
 21
210.2873497851465
 31
0.0000000000000000
  0
INSERT
  5
40F
100
AcDbEntity
  8
MAIN0
  6
BYBLOCK
 62
0
100
AcDbBlockReference
  2
_OPEN
 10
148.5682393278790
 20
210.2873497851465
 30
0.0000000000000000
 41
2.000000000000000
 42
2.000000000000000
 43
2.000000000000000
 50
360.0000000000000
  0
INSERT
  5
410
100
AcDbEntity
  8
MAIN0
  6
BYBLOCK
 62
0
100
AcDbBlockReference
  2
_OPEN
 10
134.5682393278791
 20
210.2873497851465
 30
0.0000000000000000
 41
2.000000000000000
 42
2.000000000000000
 43
2.000000000000000
 50
180.0000000000000
  0
MTEXT
  5
411
100
AcDbEntity
  8
MAIN0
  6
BYBLOCK
 62
0
100
AcDbMText
 10
141.5682393278790
 20
212.3373497374628
 30
0.0000000000000000
 40
3.099999904632568
 41
0.0000000000000000
 71
     5
 72
     1
  1
\A1;14
 11
1.000000000000000
 21
0.0000000000000000
 31
0.0000000000000000
  7
STANDARD
  0
ENDBLK
  5
412
100
AcDbEntity
  8
MAIN0
  6
CONTINUOUS
 62
3
100
AcDbBlockEnd
  0
ENDSEC
  0
SECTION
  2
ENTITIES
  0
LINE
  5
46
100
AcDbEntity
  8
MAIN0
  6
CENTER
 62
12
100
AcDbLine
 10
196.5682393278790
 20
198.1146663817336
 30
0.0000000000000000
 11
356.1402059541116
 21
198.1146663817336
 31
0.0000000000000000
  0
MTEXT
  5
47
100
AcDbEntity
  8
MAIN0
  6
CONTINUOUS
 62
3
100
AcDbMText
 10
324.3255831249398
 20
187.1535533697138
 30
0.0000000000000000
 40
3.000000000000000
 41
0.0000000000000000
 71
     1
 72
     1
  1
{\H0.81x;{1}}
 11
0.08715574274765814
 21
0.9961946980917456
 31
0.0000000000000000
  7
STANDARD
  0
MTEXT
  5
48
100
AcDbEntity
  8
MAIN0
  6
CONTINUOUS
 62
4
100
AcDbMText
 10
262.4471201409248
 20
154.6827696106257
 30
0.0000000000000000
 40
4.000000000000000
 41
0.0000000000000000
 71
     1
 72
     1
  1
{\H0.93x;{KITAGAWA}}
 11
1.000000000000000
 21
0.0000000000000000
 31
0.0000000000000000
  7
STANDARD
  0
ARC
  5
49
100
AcDbEntity
  8
MAIN0
  6
CENTER
 62
3
100
AcDbCircle
 10
276.5682393278790
 20
198.1146663817336
 30
0.0000000000000000
 40
20.99999999998968
100
AcDbArc
 50
256.8410082021022
 51
283.8992897805246
  0
ARC
  5
4A
100
AcDbEntity
  8
MAIN0
  6
CENTER
 62
3
100
AcDbCircle
 10
276.5682393278790
 20
198.1146663817337
 30
0.0000000000000000
 40
20.99999999998968
100
AcDbArc
 50
7.256096348889281
 51
46.37776186694389
  0
ARC
  5
4B
100
AcDbEntity
  8
MAIN0
  6
CENTER
 62
3
100
AcDbCircle
 10
276.5682393278790
 20
198.1146663817337
 30
0.0000000000000000
 40
20.99999999998968
100
AcDbArc
 50
136.1830079668257
 51
198.4514831693093
  0
ELLIPSE
  5
4C
100
AcDbEntity
  8
MAIN0
  6
CONTINUOUS
 62
3
100
AcDbEllipse
 10
276.5682393278790
 20
240.1119783931837
 30
0.0000000000000000
 11
0.0000000000000000
 21
-10.82144310815000
 31
0.0000000000000000
210
0.0000000000000000
220
0.0000000000000000
230
1.000000000000000
 40
0.9702957262781420
 41
2.158802414691967
 42
4.124382892487297
  0
ELLIPSE
  5
4D
100
AcDbEntity
  8
MAIN0
  6
HIDDEN
 62
3
100
AcDbEllipse
 10
276.5682393278790
 20
239.1146663817476
 30
0.0000000000000000
 11
0.0000000000000000
 21
-10.82144310815000
 31
0.0000000000000000
210
0.0000000000000000
220
0.0000000000000000
230
1.000000000000000
 40
0.9702957262781420
 41
2.274261096936887
 42
4.008924210242380
  0
ELLIPSE
  5
4E
100
AcDbEntity
  8
MAIN0
  6
HIDDEN
 62
3
100
AcDbEllipse
 10
276.5682393278790
 20
234.5020983291553
 30
0.0000000000000000
 11
0.0000000000000000
 21
-10.82144310815000
 31
0.0000000000000000
210
0.0000000000000000
220
0.0000000000000000
230
1.000000000000000
 40
0.9702957262781420
 41
5.463565087333063
 42
0.8196202198465309
  0
LINE
  5
4F
100
AcDbEntity
  8
MAIN0
  6
CENTER
 62
3
100
AcDbLine
 10
268.5879835247133
 20
230.6146663817460
 30
0.0000000000000000
 11
284.1105200950325
 21
230.6146663817446
 31
0.0000000000000000
  0
ELLIPSE
  5
50
100
AcDbEntity
  8
MAIN0
  6
CONTINUOUS
 62
3
100
AcDbEllipse
 10
276.5682393278790
 20
235.8190948307832
 30
0.0000000000000000
 11
0.0000000000000000
 21
-10.87575062215000
 31
0.0000000000000000
210
0.0000000000000000
220
0.0000000000000000
230
1.000000000000000
 40
0.9654506033464274
 41
1.260951687053272
 42
1.856941438006037
  0
ELLIPSE
  5
51
100
AcDbEntity
  8
MAIN0
  6
HIDDEN
 62
3
100
AcDbEllipse
 10
276.5682393278790
 20
235.8190948307832
 30
0.0000000000000000
 11
0.0000000000000000
 21
-10.87575062215000
 31
0.0000000000000000
210
0.0000000000000000
220
0.0000000000000000
230
1.000000000000000
 40
0.9654506033464274
 41
5.022233620126312
 42
1.260951687053272
  0
ELLIPSE
  5
52
100
AcDbEntity
  8
MAIN0
  6
CONTINUOUS
 62
3
100
AcDbEllipse
 10
276.5682393278790
 20
235.8190948307832
 30
0.0000000000000000
 11
0.0000000000000000
 21
-10.87575062215000
 31
0.0000000000000000
210
0.0000000000000000
220
0.0000000000000000
230
1.000000000000000
 40
0.9654506033464274
 41
4.426243869173550
 42
5.022233620126312
  0
LINE
  5
53
100
AcDbEntity
  8
MAIN0
  6
HIDDEN
 62
3
100
AcDbLine
 10
266.5682393278790
 20
219.1146663817163
 30
0.0000000000000000
 11
286.5682393278790
 21
219.1146663817174
 31
0.0000000000000000
  0
LINE
  5
54
100
AcDbEntity
  8
MAIN0
  6
CONTINUOUS
 62
3
100
AcDbLine
 10
276.0682393276908
 20
199.6146663817257
 30
0.0000000000000000
 11
277.0682393281868
 21
199.6146663817257
 31
0.0000000000000000
  0
ARC
  5
55
100
AcDbEntity
  8
MAIN0
  6
CONTINUOUS
 62
3
100
AcDbCircle
 10
276.5682393278790
 20
198.1146663817336
 30
0.0000000000000000
 40
54.99999999999999
100
AcDbArc
 50
65.00000000007626
 51
114.9999999999241
  0
LINE
  5
56
100
AcDbEntity
  8
MAIN0
  6
CONTINUOUS
 62
3
100
AcDbLine
 10
284.5617366286269
 20
246.1146663817088
 30
0.0000000000000000
 11
285.3047471242952
 21
246.1146663817086
 31
0.0000000000000000
  0
LINE
  5
57
100
AcDbEntity
  8
MAIN0
  6
CONTINUOUS
 62
3
100
AcDbLine
 10
267.8317315314652
 20
246.1146663817115
 30
0.0000000000000000
 11
268.5747420271333
 21
246.1146663817114
 31
0.0000000000000000
  0
LINE
  5
58
100
AcDbEntity
  8
MAIN0
  6
CONTINUOUS
 62
3
100
AcDbLine
 10
268.5747420271333
 20
246.1146663817114
 30
0.0000000000000000
 11
284.5617366286269
 21
246.1146663817087
 31
0.0000000000000000
  0
ARC
  5
59
100
AcDbEntity
  8
MAIN0
  6
HIDDEN
 62
3
100
AcDbCircle
 10
276.5682393278790
 20
198.1146663817337
 30
0.0000000000000000
 40
29.99999999998583
100
AcDbArc
 50
75.17839315928913
 51
76.13116709532078
  0
ARC
  5
5A
100
AcDbEntity
  8
MAIN0
  6
HIDDEN
 62
3
100
AcDbCircle
 10
276.5682393278790
 20
198.1146663817336
 30
0.0000000000000000
 40
29.99999999998583
100
AcDbArc
 50
103.8688329046792
 51
104.8216068407108
  0
ELLIPSE
  5
5B
100
AcDbEntity
  8
MAIN0
  6
CONTINUOUS
 62
3
100
AcDbEllipse
 10
276.5682393278790
 20
239.1146663817476
 30
0.0000000000000000
 11
0.0000000000000000
 21
-10.82144310815000
 31
0.0000000000000000
210
0.0000000000000000
220
0.0000000000000000
230
1.000000000000000
 40
0.9702957262781420
 41
1.540075079680476
 42
2.057765149974510
  0
ELLIPSE
  5
5C
100
AcDbEntity
  8
MAIN0
  6
CONTINUOUS
 62
3
100
AcDbEllipse
 10
276.5682393278790
 20
239.1146663817476
 30
0.0000000000000000
 11
0.0000000000000000
 21
-10.82144310815000
 31
0.0000000000000000
210
0.0000000000000000
220
0.0000000000000000
230
1.000000000000000
 40
0.9702957262781420
 41
2.057765149974510
 42
2.274261096936887
  0
ELLIPSE
  5
5D
100
AcDbEntity
  8
MAIN0
  6
CONTINUOUS
 62
3
100
AcDbEllipse
 10
276.5682393278790
 20
239.1146663817476
 30
0.0000000000000000
 11
0.0000000000000000
 21
-10.82144310815000
 31
0.0000000000000000
210
0.0000000000000000
220
0.0000000000000000
230
1.000000000000000
 40
0.9702957262781420
 41
4.008924210242380
 42
4.225420157205076
  0
ELLIPSE
  5
5E
100
AcDbEntity
  8
MAIN0
  6
CONTINUOUS
 62
3
100
AcDbEllipse
 10
276.5682393278790
 20
239.1146663817476
 30
0.0000000000000000
 11
0.0000000000000000
 21
-10.82144310815000
 31
0.0000000000000000
210
0.0000000000000000
220
0.0000000000000000
230
1.000000000000000
 40
0.9702957262781420
 41
4.225420157205076
 42
4.743110227499111
  0
LINE
  5
5F
100
AcDbEntity
  8
MAIN0
  6
CONTINUOUS
 62
3
100
AcDbLine
 10
266.5682393278790
 20
205.0994939389232
 30
0.0000000000000000
 11
266.5682393278790
 21
219.1146663817163
 31
0.0000000000000000
  0
LINE
  5
60
100
AcDbEntity
  8
MAIN0
  6
CONTINUOUS
 62
3
100
AcDbLine
 10
266.5682393278790
 20
219.1146663817163
 30
0.0000000000000000
 11
266.5682393278790
 21
238.9068224904545
 31
0.0000000000000000
  0
LINE
  5
61
100
AcDbEntity
  8
MAIN0
  6
CONTINUOUS
 62
3
100
AcDbLine
 10
286.5682393278790
 20
205.0994939388520
 30
0.0000000000000000
 11
286.5682393278790
 21
219.1146663817174
 31
0.0000000000000000
  0
LINE
  5
62
100
AcDbEntity
  8
MAIN0
  6
CONTINUOUS
 62
3
100
AcDbLine
 10
286.5682393278790
 20
219.1146663817174
 30
0.0000000000000000
 11
286.5682393278790
 21
238.9068224904545
 31
0.0000000000000000
  0
ARC
  5
63
100
AcDbEntity
  8
MAIN0
  6
CONTINUOUS
 62
3
100
AcDbCircle
 10
276.5682393278790
 20
198.1146663817336
 30
0.0000000000000000
 40
41.50000000000000
100
AcDbArc
 50
65.00000000010161
 51
75.75121945939854
  0
ARC
  5
64
100
AcDbEntity
  8
MAIN0
  6
CONTINUOUS
 62
3
100
AcDbCircle
 10
276.5682393278790
 20
198.1146663817336
 30
0.0000000000000000
 40
41.50000000000000
100
AcDbArc
 50
104.2487805406016
 51
114.9999999998988
  0
ARC
  5
65
100
AcDbEntity
  8
MAIN0
  6
CONTINUOUS
 62
3
100
AcDbCircle
 10
276.5682393278790
 20
198.1146663817336
 30
0.0000000000000000
 40
45.73857604833375
100
AcDbArc
 50
65.00000000009209
 51
77.52289911005788
  0
ARC
  5
66
100
AcDbEntity
  8
MAIN0
  6
CONTINUOUS
 62
3
100
AcDbCircle
 10
276.5682393278790
 20
198.1146663817336
 30
0.0000000000000000
 40
45.73857604833375
100
AcDbArc
 50
102.4771008899422
 51
114.9999999999084
  0
ELLIPSE
  5
67
100
AcDbEntity
  8
MAIN0
  6
HIDDEN
 62
3
100
AcDbEllipse
 10
276.5682393278790
 20
235.1254183363072
 30
0.0000000000000000
 11
0.0000000000000000
 21
-10.82144310815000
 31
0.0000000000000000
210
0.0000000000000000
220
0.0000000000000000
230
1.000000000000000
 40
0.9702957262781420
 41
0.7544075047527870
 42
1.260951687053267
  0
ELLIPSE
  5
68
100
AcDbEntity
  8
MAIN0
  6
CONTINUOUS
 62
3
100
AcDbEllipse
 10
276.5682393278790
 20
235.1254183363072
 30
0.0000000000000000
 11
0.0000000000000000
 21
-10.82144310815000
 31
0.0000000000000000
210
0.0000000000000000
220
0.0000000000000000
230
1.000000000000000
 40
0.9702957262781420
 41
1.260951687053267
 42
1.602772568670551
  0
ELLIPSE
  5
69
100
AcDbEntity
  8
MAIN0
  6
CONTINUOUS
 62
3
100
AcDbEllipse
 10
276.5682393278790
 20
235.1254183363072
 30
0.0000000000000000
 11
0.0000000000000000
 21
-10.82144310815000
 31
0.0000000000000000
210
0.0000000000000000
220
0.0000000000000000
230
1.000000000000000
 40
0.9702957262781420
 41
4.680412738509033
 42
5.022233620126320
  0
ELLIPSE
  5
6A
100
AcDbEntity
  8
MAIN0
  6
HIDDEN
 62
3
100
AcDbEllipse
 10
276.5682393278790
 20
235.1254183363072
 30
0.0000000000000000
 11
0.0000000000000000
 21
-10.82144310815000
 31
0.0000000000000000
210
0.0000000000000000
220
0.0000000000000000
230
1.000000000000000
 40
0.9702957262781420
 41
5.022233620126320
 42
5.528777802426808
  0
ELLIPSE
  5
6B
100
AcDbEntity
  8
MAIN0
  6
CONTINUOUS
 62
3
100
AcDbEllipse
 10
240.1975002353019
 20
177.1160103760086
 30
0.0000000000000000
 11
9.371644637265939
 21
5.410721554074994
 31
0.0000000000000000
210
0.0000000000000000
220
0.0000000000000000
230
1.000000000000000
 40
0.9702957262781420
 41
2.158802414691966
 42
4.124382892487299
  0
ELLIPSE
  5
6C
100
AcDbEntity
  8
MAIN0
  6
HIDDEN
 62
3
100
AcDbEllipse
 10
241.0611977727050
 20
177.6146663817267
 30
0.0000000000000000
 11
9.371644637265939
 21
5.410721554074994
 31
0.0000000000000000
210
0.0000000000000000
220
0.0000000000000000
230
1.000000000000000
 40
0.9702957262781420
 41
2.274261096936886
 42
4.008924210242380
  0
ELLIPSE
  5
6D
100
AcDbEntity
  8
MAIN0
  6
HIDDEN
 62
3
100
AcDbEllipse
 10
245.0557988829344
 20
179.9209504080228
 30
0.0000000000000000
 11
9.371644637265939
 21
5.410721554074994
 31
0.0000000000000000
210
0.0000000000000000
220
0.0000000000000000
230
1.000000000000000
 40
0.9702957262781420
 41
5.463565087333062
 42
0.8196202198465304
  0
LINE
  5
6E
100
AcDbEntity
  8
MAIN0
  6
CENTER
 62
3
100
AcDbLine
 10
252.4125416064569
 20
174.9535621274877
 30
0.0000000000000000
 11
244.6512733212986
 21
188.3964731285578
 31
0.0000000000000000
  0
CIRCLE
  5
6F
100
AcDbEntity
  8
MAIN0
  6
CONTINUOUS
 62
3
100
AcDbCircle
 10
248.4224137048747
 20
181.8646663817278
 30
0.0000000000000000
 40
5.500000000000000
  0
CIRCLE
  5
70
100
AcDbEntity
  8
MAIN0
  6
CONTINUOUS
 62
3
100
AcDbCircle
 10
248.4224137048747
 20
181.8646663817278
 30
0.0000000000000000
 40
5.000000000000000
  0
LINE
  5
71
100
AcDbEntity
  8
MAIN0
  6
CONTINUOUS
 62
3
100
AcDbLine
 10
245.9224137048748
 20
180.4212907087537
 30
0.0000000000000000
 11
248.4224137048748
 21
178.9779150357797
 31
0.0000000000000000
  0
LINE
  5
72
100
AcDbEntity
  8
MAIN0
  6
CONTINUOUS
 62
3
100
AcDbLine
 10
248.4224137048747
 20
178.9779150357797
 30
0.0000000000000000
 11
250.9224137048747
 21
180.4212907087538
 31
0.0000000000000000
  0
LINE
  5
73
100
AcDbEntity
  8
MAIN0
  6
CONTINUOUS
 62
3
100
AcDbLine
 10
250.9224137048747
 20
180.4212907087538
 30
0.0000000000000000
 11
250.9224137048747
 21
183.3080420547019
 31
0.0000000000000000
  0
LINE
  5
74
100
AcDbEntity
  8
MAIN0
  6
CONTINUOUS
 62
3
100
AcDbLine
 10
250.9224137048748
 20
183.3080420547018
 30
0.0000000000000000
 11
248.4224137048748
 21
184.7514177276759
 31
0.0000000000000000
  0
LINE
  5
75
100
AcDbEntity
  8
MAIN0
  6
CONTINUOUS
 62
3
100
AcDbLine
 10
248.4224137048747
 20
184.7514177276759
 30
0.0000000000000000
 11
245.9224137048747
 21
183.3080420547019
 31
0.0000000000000000
  0
LINE
  5
76
100
AcDbEntity
  8
MAIN0
  6
CONTINUOUS
 62
3
100
AcDbLine
 10
245.9224137048747
 20
183.3080420547019
 30
0.0000000000000000
 11
245.9224137048747
 21
180.4212907087538
 31
0.0000000000000000
  0
ELLIPSE
  5
77
100
AcDbEntity
  8
MAIN0
  6
CONTINUOUS
 62
3
100
AcDbEllipse
 10
243.9152464558295
 20
179.2624521572089
 30
0.0000000000000000
 11
9.418676324006317
 21
5.437875311074993
 31
0.0000000000000000
210
0.0000000000000000
220
0.0000000000000000
230
1.000000000000000
 40
0.9654506033464274
 41
1.260951687053272
 42
1.856941438006036
  0
ELLIPSE
  5
78
100
AcDbEntity
  8
MAIN0
  6
HIDDEN
 62
3
100
AcDbEllipse
 10
243.9152464558295
 20
179.2624521572089
 30
0.0000000000000000
 11
9.418676324006317
 21
5.437875311074993
 31
0.0000000000000000
210
0.0000000000000000
220
0.0000000000000000
230
1.000000000000000
 40
0.9654506033464274
 41
5.022233620126313
 42
1.260951687053272
  0
ELLIPSE
  5
79
100
AcDbEntity
  8
MAIN0
  6
CONTINUOUS
 62
3
100
AcDbEllipse
 10
243.9152464558295
 20
179.2624521572089
 30
0.0000000000000000
 11
9.418676324006317
 21
5.437875311074993
 31
0.0000000000000000
210
0.0000000000000000
220
0.0000000000000000
230
1.000000000000000
 40
0.9654506033464274
 41
4.426243869173550
 42
5.022233620126313
  0
LINE
  5
7A
100
AcDbEntity
  8
MAIN0
  6
HIDDEN
 62
3
100
AcDbLine
 10
263.3817058484209
 20
178.9544123438979
 30
0.0000000000000000
 11
253.3817058484200
 21
196.2749204195861
 31
0.0000000000000000
  0
LINE
  5
7B
100
AcDbEntity
  8
MAIN0
  6
CONTINUOUS
 62
3
100
AcDbLine
 10
231.0022712958736
 20
181.0372381092761
 30
0.0000000000000000
 11
230.6307660480396
 21
181.6807040738033
 31
0.0000000000000000
  0
LINE
  5
7C
100
AcDbEntity
  8
MAIN0
  6
CONTINUOUS
 62
3
100
AcDbLine
 10
239.3672738444521
 20
166.5486286896895
 30
0.0000000000000000
 11
238.9957685966182
 21
167.1920946542165
 31
0.0000000000000000
  0
LINE
  5
7D
100
AcDbEntity
  8
MAIN0
  6
CONTINUOUS
 62
3
100
AcDbLine
 10
238.9957685966182
 20
167.1920946542166
 30
0.0000000000000000
 11
231.0022712958736
 21
181.0372381092761
 31
0.0000000000000000
  0
ARC
  5
7E
100
AcDbEntity
  8
MAIN0
  6
HIDDEN
 62
3
100
AcDbCircle
 10
276.5682393278790
 20
198.1146663817336
 30
0.0000000000000000
 40
29.99999999998583
100
AcDbArc
 50
195.1783931592891
 51
196.1311670953208
  0
ARC
  5
7F
100
AcDbEntity
  8
MAIN0
  6
HIDDEN
 62
3
100
AcDbCircle
 10
276.5682393278792
 20
198.1146663817337
 30
0.0000000000000000
 40
29.99999999998583
100
AcDbArc
 50
223.8688329046792
 51
224.8216068407108
  0
LINE
  5
80
100
AcDbEntity
  8
MAIN0
  6
CONTINUOUS
 62
3
100
AcDbLine
 10
275.5192012222993
 20
185.9619985652944
 30
0.0000000000000000
 11
263.3817058484209
 21
178.9544123438979
 31
0.0000000000000000
  0
LINE
  5
81
100
AcDbEntity
  8
MAIN0
  6
CONTINUOUS
 62
3
100
AcDbLine
 10
263.3817058484209
 20
178.9544123438980
 30
0.0000000000000000
 11
246.2411958625862
 21
169.0583342895288
 31
0.0000000000000000
  0
LINE
  5
82
100
AcDbEntity
  8
MAIN0
  6
CONTINUOUS
 62
3
100
AcDbLine
 10
265.5192012223610
 20
203.2825066410189
 30
0.0000000000000000
 11
253.3817058484199
 21
196.2749204195862
 31
0.0000000000000000
  0
LINE
  5
83
100
AcDbEntity
  8
MAIN0
  6
CONTINUOUS
 62
3
100
AcDbLine
 10
253.3817058484200
 20
196.2749204195862
 30
0.0000000000000000
 11
236.2411958625862
 21
186.3788423652176
 31
0.0000000000000000
  0
ARC
  5
84
100
AcDbEntity
  8
MAIN0
  6
CONTINUOUS
 62
3
100
AcDbCircle
 10
276.5682393278790
 20
198.1146663817337
 30
0.0000000000000000
 40
41.50000000000000
100
AcDbArc
 50
185.0000000001016
 51
195.7512194593985
  0
ARC
  5
85
100
AcDbEntity
  8
MAIN0
  6
CONTINUOUS
 62
3
100
AcDbCircle
 10
276.5682393278790
 20
198.1146663817337
 30
0.0000000000000000
 40
41.50000000000000
100
AcDbArc
 50
224.2487805406016
 51
234.9999999998988
  0
ARC
  5
86
100
AcDbEntity
  8
MAIN0
  6
CONTINUOUS
 62
3
100
AcDbCircle
 10
276.5682393278790
 20
198.1146663817337
 30
0.0000000000000000
 40
45.73857604833375
100
AcDbArc
 50
185.0000000000921
 51
197.5228991100579
  0
ARC
  5
87
100
AcDbEntity
  8
MAIN0
  6
CONTINUOUS
 62
3
100
AcDbCircle
 10
276.5682393278790
 20
198.1146663817337
 30
0.0000000000000000
 40
45.73857604833375
100
AcDbArc
 50
222.4771008899422
 51
234.9999999999083
  0
ELLIPSE
  5
88
100
AcDbEntity
  8
MAIN0
  6
HIDDEN
 62
3
100
AcDbEllipse
 10
244.5159879220538
 20
179.6092904044469
 30
0.0000000000000000
 11
9.371644637265939
 21
5.410721554074994
 31
0.0000000000000000
210
0.0000000000000000
220
0.0000000000000000
230
1.000000000000000
 40
0.9702957262781420
 41
0.7544075047527857
 42
1.260951687053269
  0
ELLIPSE
  5
89
100
AcDbEntity
  8
MAIN0
  6
CONTINUOUS
 62
3
100
AcDbEllipse
 10
244.5159879220538
 20
179.6092904044469
 30
0.0000000000000000
 11
9.371644637265939
 21
5.410721554074994
 31
0.0000000000000000
210
0.0000000000000000
220
0.0000000000000000
230
1.000000000000000
 40
0.9702957262781420
 41
1.260951687053269
 42
1.602772568670553
  0
ELLIPSE
  5
8A
100
AcDbEntity
  8
MAIN0
  6
CONTINUOUS
 62
3
100
AcDbEllipse
 10
244.5159879220538
 20
179.6092904044469
 30
0.0000000000000000
 11
9.371644637265939
 21
5.410721554074994
 31
0.0000000000000000
210
0.0000000000000000
220
0.0000000000000000
230
1.000000000000000
 40
0.9702957262781420
 41
4.680412738509032
 42
5.022233620126315
  0
ELLIPSE
  5
8B
100
AcDbEntity
  8
MAIN0
  6
HIDDEN
 62
3
100
AcDbEllipse
 10
244.5159879220538
 20
179.6092904044469
 30
0.0000000000000000
 11
9.371644637265939
 21
5.410721554074994
 31
0.0000000000000000
210
0.0000000000000000
220
0.0000000000000000
230
1.000000000000000
 40
0.9702957262781420
 41
5.022233620126315
 42
5.528777802426806
  0
ELLIPSE
  5
8C
100
AcDbEntity
  8
MAIN0
  6
CONTINUOUS
 62
3
100
AcDbEllipse
 10
312.9389784204561
 20
177.1160103760086
 30
0.0000000000000000
 11
-9.371644637265939
 21
5.410721554074996
 31
0.0000000000000000
210
0.0000000000000000
220
0.0000000000000000
230
1.000000000000000
 40
0.9702957262781420
 41
2.158802414691966
 42
4.124382892487297
  0
ELLIPSE
  5
8D
100
AcDbEntity
  8
MAIN0
  6
HIDDEN
 62
3
100
AcDbEllipse
 10
312.0752808830531
 20
177.6146663817267
 30
0.0000000000000000
 11
-9.371644637265939
 21
5.410721554074996
 31
0.0000000000000000
210
0.0000000000000000
220
0.0000000000000000
230
1.000000000000000
 40
0.9702957262781420
 41
2.274261096936889
 42
4.008924210242380
  0
ELLIPSE
  5
8E
100
AcDbEntity
  8
MAIN0
  6
HIDDEN
 62
3
100
AcDbEllipse
 10
308.0806797728237
 20
179.9209504080228
 30
0.0000000000000000
 11
-9.371644637265939
 21
5.410721554074996
 31
0.0000000000000000
210
0.0000000000000000
220
0.0000000000000000
230
1.000000000000000
 40
0.9702957262781420
 41
5.463565087333070
 42
0.8196202198465273
  0
LINE
  5
8F
100
AcDbEntity
  8
MAIN0
  6
CENTER
 62
3
100
AcDbLine
 10
308.7041928524669
 20
188.7757706359672
 30
0.0000000000000000
 11
300.9429245673060
 21
175.3328596348985
 31
0.0000000000000000
  0
CIRCLE
  5
90
100
AcDbEntity
  8
MAIN0
  6
CONTINUOUS
 62
3
100
AcDbCircle
 10
304.7140649508834
 20
181.8646663817278
 30
0.0000000000000000
 40
5.500000000000000
  0
CIRCLE
  5
91
100
AcDbEntity
  8
MAIN0
  6
CONTINUOUS
 62
3
100
AcDbCircle
 10
304.7140649508834
 20
181.8646663817278
 30
0.0000000000000000
 40
5.000000000000000
  0
LINE
  5
92
100
AcDbEntity
  8
MAIN0
  6
CONTINUOUS
 62
3
100
AcDbLine
 10
307.2140649508834
 20
180.4212907087538
 30
0.0000000000000000
 11
307.2140649508834
 21
183.3080420547019
 31
0.0000000000000000
  0
LINE
  5
93
100
AcDbEntity
  8
MAIN0
  6
CONTINUOUS
 62
3
100
AcDbLine
 10
307.2140649508834
 20
183.3080420547019
 30
0.0000000000000000
 11
304.7140649508834
 21
184.7514177276760
 31
0.0000000000000000
  0
LINE
  5
94
100
AcDbEntity
  8
MAIN0
  6
CONTINUOUS
 62
3
100
AcDbLine
 10
304.7140649508834
 20
184.7514177276760
 30
0.0000000000000000
 11
302.2140649508834
 21
183.3080420547019
 31
0.0000000000000000
  0
LINE
  5
95
100
AcDbEntity
  8
MAIN0
  6
CONTINUOUS
 62
3
100
AcDbLine
 10
302.2140649508834
 20
183.3080420547019
 30
0.0000000000000000
 11
302.2140649508834
 21
180.4212907087538
 31
0.0000000000000000
  0
LINE
  5
96
100
AcDbEntity
  8
MAIN0
  6
CONTINUOUS
 62
3
100
AcDbLine
 10
302.2140649508834
 20
180.4212907087538
 30
0.0000000000000000
 11
304.7140649508834
 21
178.9779150357797
 31
0.0000000000000000
  0
LINE
  5
97
100
AcDbEntity
  8
MAIN0
  6
CONTINUOUS
 62
3
100
AcDbLine
 10
304.7140649508834
 20
178.9779150357797
 30
0.0000000000000000
 11
307.2140649508834
 21
180.4212907087538
 31
0.0000000000000000
  0
ELLIPSE
  5
98
100
AcDbEntity
  8
MAIN0
  6
CONTINUOUS
 62
3
100
AcDbEllipse
 10
309.2212321999286
 20
179.2624521572089
 30
0.0000000000000000
 11
-9.418676324006317
 21
5.437875311074995
 31
0.0000000000000000
210
0.0000000000000000
220
0.0000000000000000
230
1.000000000000000
 40
0.9654506033464274
 41
1.260951687053276
 42
1.856941438006037
  0
ELLIPSE
  5
99
100
AcDbEntity
  8
MAIN0
  6
HIDDEN
 62
3
100
AcDbEllipse
 10
309.2212321999286
 20
179.2624521572089
 30
0.0000000000000000
 11
-9.418676324006317
 21
5.437875311074995
 31
0.0000000000000000
210
0.0000000000000000
220
0.0000000000000000
230
1.000000000000000
 40
0.9654506033464274
 41
5.022233620126309
 42
1.260951687053276
  0
ELLIPSE
  5
9A
100
AcDbEntity
  8
MAIN0
  6
CONTINUOUS
 62
3
100
AcDbEllipse
 10
309.2212321999286
 20
179.2624521572089
 30
0.0000000000000000
 11
-9.418676324006317
 21
5.437875311074995
 31
0.0000000000000000
210
0.0000000000000000
220
0.0000000000000000
230
1.000000000000000
 40
0.9654506033464274
 41
4.426243869173549
 42
5.022233620126309
  0
LINE
  5
9B
100
AcDbEntity
  8
MAIN0
  6
CONTINUOUS
 62
3
100
AcDbLine
 10
314.1407100591366
 20
167.1920946542161
 30
0.0000000000000000
 11
313.7692048113023
 21
166.5486286896890
 31
0.0000000000000000
  0
LINE
  5
9C
100
AcDbEntity
  8
MAIN0
  6
CONTINUOUS
 62
3
100
AcDbLine
 10
322.5057126077198
 20
181.6807040737999
 30
0.0000000000000000
 11
322.1342073598856
 21
181.0372381092730
 31
0.0000000000000000
  0
LINE
  5
9D
100
AcDbEntity
  8
MAIN0
  6
CONTINUOUS
 62
3
100
AcDbLine
 10
322.1342073598856
 20
181.0372381092730
 30
0.0000000000000000
 11
314.1407100591365
 21
167.1920946542161
 31
0.0000000000000000
  0
ARC
  5
9E
100
AcDbEntity
  8
MAIN0
  6
HIDDEN
 62
3
100
AcDbCircle
 10
276.5682393278790
 20
198.1146663817336
 30
0.0000000000000000
 40
29.99999999998583
100
AcDbArc
 50
315.1783931592891
 51
316.1311670953207
  0
ARC
  5
9F
100
AcDbEntity
  8
MAIN0
  6
HIDDEN
 62
3
100
AcDbCircle
 10
276.5682393278790
 20
198.1146663817337
 30
0.0000000000000000
 40
29.99999999998583
100
AcDbArc
 50
343.8688329046792
 51
344.8216068407107
  0
LINE
  5
A0
100
AcDbEntity
  8
MAIN0
  6
CONTINUOUS
 62
3
100
AcDbLine
 10
289.6804067504106
 20
202.0913583744681
 30
0.0000000000000000
 11
299.7547728073372
 21
196.2749204195867
 31
0.0000000000000000
  0
LINE
  5
A1
100
AcDbEntity
  8
MAIN0
  6
CONTINUOUS
 62
3
100
AcDbLine
 10
299.7547728073373
 20
196.2749204195867
 30
0.0000000000000000
 11
316.8952827931719
 21
186.3788423652176
 31
0.0000000000000000
  0
LINE
  5
A2
100
AcDbEntity
  8
MAIN0
  6
CONTINUOUS
 62
3
100
AcDbLine
 10
277.6172774333970
 20
185.9619985653302
 30
0.0000000000000000
 11
289.7547728073382
 21
178.9544123438974
 31
0.0000000000000000
  0
LINE
  5
A3
100
AcDbEntity
  8
MAIN0
  6
CONTINUOUS
 62
3
100
AcDbLine
 10
289.7547728073382
 20
178.9544123438974
 30
0.0000000000000000
 11
306.8952827931719
 21
169.0583342895288
 31
0.0000000000000000
  0
ARC
  5
A4
100
AcDbEntity
  8
MAIN0
  6
CONTINUOUS
 62
3
100
AcDbCircle
 10
276.5682393278790
 20
198.1146663817337
 30
0.0000000000000000
 40
41.50000000000000
100
AcDbArc
 50
305.0000000001016
 51
315.7512194593985
  0
ARC
  5
A5
100
AcDbEntity
  8
MAIN0
  6
CONTINUOUS
 62
3
100
AcDbCircle
 10
276.5682393278790
 20
198.1146663817337
 30
0.0000000000000000
 40
41.50000000000000
100
AcDbArc
 50
344.2487805406016
 51
354.9999999998988
  0
ARC
  5
A6
100
AcDbEntity
  8
MAIN0
  6
CONTINUOUS
 62
3
100
AcDbCircle
 10
276.5682393278790
 20
198.1146663817337
 30
0.0000000000000000
 40
45.73857604833375
100
AcDbArc
 50
305.0000000000921
 51
317.5228991100578
  0
ARC
  5
A7
100
AcDbEntity
  8
MAIN0
  6
CONTINUOUS
 62
3
100
AcDbCircle
 10
276.5682393278790
 20
198.1146663817337
 30
0.0000000000000000
 40
45.73857604833375
100
AcDbArc
 50
342.4771008899422
 51
354.9999999999084
  0
ELLIPSE
  5
A8
100
AcDbEntity
  8
MAIN0
  6
HIDDEN
 62
3
100
AcDbEllipse
 10
308.6204907337043
 20
179.6092904044469
 30
0.0000000000000000
 11
-9.371644637265939
 21
5.410721554074996
 31
0.0000000000000000
210
0.0000000000000000
220
0.0000000000000000
230
1.000000000000000
 40
0.9702957262781420
 41
0.7544075047527875
 42
1.260951687053270
  0
ELLIPSE
  5
A9
100
AcDbEntity
  8
MAIN0
  6
CONTINUOUS
 62
3
100
AcDbEllipse
 10
308.6204907337043
 20
179.6092904044469
 30
0.0000000000000000
 11
-9.371644637265939
 21
5.410721554074996
 31
0.0000000000000000
210
0.0000000000000000
220
0.0000000000000000
230
1.000000000000000
 40
0.9702957262781420
 41
1.260951687053270
 42
1.602772568670553
  0
ELLIPSE
  5
AA
100
AcDbEntity
  8
MAIN0
  6
CONTINUOUS
 62
3
100
AcDbEllipse
 10
308.6204907337043
 20
179.6092904044469
 30
0.0000000000000000
 11
-9.371644637265939
 21
5.410721554074996
 31
0.0000000000000000
210
0.0000000000000000
220
0.0000000000000000
230
1.000000000000000
 40
0.9702957262781420
 41
4.680412738509034
 42
5.022233620126315
  0
ELLIPSE
  5
AB
100
AcDbEntity
  8
MAIN0
  6
HIDDEN
 62
3
100
AcDbEllipse
 10
308.6204907337043
 20
179.6092904044469
 30
0.0000000000000000
 11
-9.371644637265939
 21
5.410721554074996
 31
0.0000000000000000
210
0.0000000000000000
220
0.0000000000000000
230
1.000000000000000
 40
0.9702957262781420
 41
5.022233620126315
 42
5.528777802426808
  0
MTEXT
  5
AC
100
AcDbEntity
  8
MAIN0
  6
CONTINUOUS
 62
3
100
AcDbMText
 10
261.0785412009029
 20
244.5409031596394
 30
0.0000000000000000
 40
3.000000000000000
 41
0.0000000000000000
 71
     1
 72
     1
  1
{\H0.81x;{3}}
 11
-0.9063077870366501
 21
-0.4226182617406993
 31
0.0000000000000000
  7
STANDARD
  0
MTEXT
  5
AD
100
AcDbEntity
  8
MAIN0
  6
CONTINUOUS
 62
3
100
AcDbMText
 10
241.6130149627392
 20
162.9182969138676
 30
0.0000000000000000
 40
3.000000000000000
 41
0.0000000000000000
 71
     1
 72
     1
  1
{\H0.81x;{2}}
 11
0.8191520442889916
 21
-0.5735764363510465
 31
0.0000000000000000
  7
STANDARD
  0
DIMENSION
  5
B6
100
AcDbEntity
  8
MAIN0
  6
CONTINUOUS
 62
3
100
AcDbDimension
  2
*D0
 10
286.5682393278790
 20
260.6789122538522
 30
0.0000000000000000
 11
276.5682393278790
 21
261.1789122538522
 31
0.0000000000000000
 70
32
  3
MAIN001
100
AcDbAlignedDimension
 13
266.5682393278790
 23
238.9068224904545
 33
0.0000000000000000
 14
286.5682393278790
 24
238.9068224904545
 34
0.0000000000000000
100
AcDbRotatedDimension
1001
ACAD
1000
DSTYLE
1002
{
1070
   173
1070
     1
1070
     6
1000
_OPEN
1070
     7
1000
_OPEN
1070
    41
1040
2.000000
1002
}
  0
LINE
  5
B7
100
AcDbEntity
  8
MAIN0
  6
CENTER
 62
3
100
AcDbLine
 10
289.6454337687811
 20
205.6647881124335
 30
0.0000000000000000
 11
300.0211373564712
 21
211.6552033718182
 31
0.0000000000000000
  0
DIMENSION
  5
BE
100
AcDbEntity
  8
MAIN0
  6
CONTINUOUS
 62
3
100
AcDbDimension
  2
*D1
 10
296.9584686987888
 20
203.1384643674470
 30
0.0000000000000000
 11
283.3697686207803
 21
200.3053974592943
 31
0.0000000000000000
 70
163
  3
MAIN001
100
AcDbDiametricDimension
 15
256.1780099569694
 25
193.0908683960203
 35
0.0000000000000000
1001
ACAD
1000
DSTYLE
1002
{
1070
   287
1070
     2
1070
   173
1070
     1
1070
     6
1000
_OPEN
1070
     7
1000
_OPEN
1070
    41
1040
2.000000
1070
   272
1070
     1
1070
    47
1040
0.200000
1070
    48
1040
0.200000
1070
    71
1070
     1
1002
}
  0
LINE
  5
BF
100
AcDbEntity
  8
MAIN0
  6
CENTER
 62
3
100
AcDbLine
 10
227.0213643734909
 20
169.5087647893129
 30
0.0000000000000000
 11
269.9526832582761
 21
194.2951733041093
 31
0.0000000000000000
  0
ARC
  5
C0
100
AcDbEntity
  8
MAIN0
  6
CONTINUOUS
 62
3
100
AcDbCircle
 10
276.5682393278790
 20
198.1146663817336
 30
0.0000000000000000
 40
41.99999999997922
100
AcDbArc
 50
75.52946825335404
 51
104.4705317466460
  0
ELLIPSE
  5
C1
100
AcDbEntity
  8
MAIN0
  6
CONTINUOUS
 62
3
100
AcDbEllipse
 10
241.0611977727050
 20
177.6146663817267
 30
0.0000000000000000
 11
9.371644637265939
 21
5.410721554074994
 31
0.0000000000000000
210
0.0000000000000000
220
0.0000000000000000
230
1.000000000000000
 40
0.9702957262781420
 41
1.540075079680475
 42
2.057765149974508
  0
ELLIPSE
  5
C2
100
AcDbEntity
  8
MAIN0
  6
CONTINUOUS
 62
3
100
AcDbEllipse
 10
241.0611977727050
 20
177.6146663817267
 30
0.0000000000000000
 11
9.371644637265939
 21
5.410721554074994
 31
0.0000000000000000
210
0.0000000000000000
220
0.0000000000000000
230
1.000000000000000
 40
0.9702957262781420
 41
2.057765149974508
 42
2.274261096936886
  0
ELLIPSE
  5
C3
100
AcDbEntity
  8
MAIN0
  6
CONTINUOUS
 62
3
100
AcDbEllipse
 10
241.0611977727050
 20
177.6146663817267
 30
0.0000000000000000
 11
9.371644637265939
 21
5.410721554074994
 31
0.0000000000000000
210
0.0000000000000000
220
0.0000000000000000
230
1.000000000000000
 40
0.9702957262781420
 41
4.008924210242380
 42
4.225420157205078
  0
ELLIPSE
  5
C4
100
AcDbEntity
  8
MAIN0
  6
CONTINUOUS
 62
3
100
AcDbEllipse
 10
241.0611977727050
 20
177.6146663817267
 30
0.0000000000000000
 11
9.371644637265939
 21
5.410721554074994
 31
0.0000000000000000
210
0.0000000000000000
220
0.0000000000000000
230
1.000000000000000
 40
0.9702957262781420
 41
4.225420157205078
 42
4.743110227499113
  0
ARC
  5
C5
100
AcDbEntity
  8
MAIN0
  6
CONTINUOUS
 62
3
100
AcDbCircle
 10
276.5682393278790
 20
198.1146663817337
 30
0.0000000000000000
 40
41.99999999997922
100
AcDbArc
 50
195.5294682533540
 51
224.4705317466460
  0
ELLIPSE
  5
C6
100
AcDbEntity
  8
MAIN0
  6
CONTINUOUS
 62
3
100
AcDbEllipse
 10
312.0752808830531
 20
177.6146663817267
 30
0.0000000000000000
 11
-9.371644637265939
 21
5.410721554074996
 31
0.0000000000000000
210
0.0000000000000000
220
0.0000000000000000
230
1.000000000000000
 40
0.9702957262781420
 41
1.540075079680475
 42
2.057765149974508
  0
ELLIPSE
  5
C7
100
AcDbEntity
  8
MAIN0
  6
CONTINUOUS
 62
3
100
AcDbEllipse
 10
312.0752808830531
 20
177.6146663817267
 30
0.0000000000000000
 11
-9.371644637265939
 21
5.410721554074996
 31
0.0000000000000000
210
0.0000000000000000
220
0.0000000000000000
230
1.000000000000000
 40
0.9702957262781420
 41
2.057765149974508
 42
2.274261096936889
  0
ELLIPSE
  5
C8
100
AcDbEntity
  8
MAIN0
  6
CONTINUOUS
 62
3
100
AcDbEllipse
 10
312.0752808830531
 20
177.6146663817267
 30
0.0000000000000000
 11
-9.371644637265939
 21
5.410721554074996
 31
0.0000000000000000
210
0.0000000000000000
220
0.0000000000000000
230
1.000000000000000
 40
0.9702957262781420
 41
4.008924210242380
 42
4.225420157205079
  0
ELLIPSE
  5
C9
100
AcDbEntity
  8
MAIN0
  6
CONTINUOUS
 62
3
100
AcDbEllipse
 10
312.0752808830531
 20
177.6146663817267
 30
0.0000000000000000
 11
-9.371644637265939
 21
5.410721554074996
 31
0.0000000000000000
210
0.0000000000000000
220
0.0000000000000000
230
1.000000000000000
 40
0.9702957262781420
 41
4.225420157205079
 42
4.743110227499110
  0
ARC
  5
CA
100
AcDbEntity
  8
MAIN0
  6
CONTINUOUS
 62
3
100
AcDbCircle
 10
276.5682393278790
 20
198.1146663817337
 30
0.0000000000000000
 40
41.99999999997922
100
AcDbArc
 50
315.5294682533540
 51
344.4705317466460
  0
LINE
  5
CB
100
AcDbEntity
  8
MAIN0
  6
CONTINUOUS
 62
3
100
AcDbLine
 10
286.5682393278790
 20
216.1146663817062
 30
0.0000000000000000
 11
295.3299023671993
 21
216.1146663817059
 31
0.0000000000000000
  0
LINE
  5
CC
100
AcDbEntity
  8
MAIN0
  6
CONTINUOUS
 62
3
100
AcDbLine
 10
257.8065762885601
 20
216.1146663817073
 30
0.0000000000000000
 11
266.5682393278790
 21
216.1146663817070
 31
0.0000000000000000
  0
LINE
  5
CD
100
AcDbEntity
  8
MAIN0
  6
HIDDEN
 62
3
100
AcDbLine
 10
266.5682393278790
 20
216.1146663817070
 30
0.0000000000000000
 11
286.5682393278790
 21
216.1146663817062
 31
0.0000000000000000
  0
LINE
  5
CE
100
AcDbEntity
  8
MAIN0
  6
HIDDEN
 62
3
100
AcDbLine
 10
265.9797820597822
 20
180.4544123439026
 30
0.0000000000000000
 11
255.9797820597829
 21
197.7749204195917
 31
0.0000000000000000
  0
LINE
  5
CF
100
AcDbEntity
  8
MAIN0
  6
CONTINUOUS
 62
3
100
AcDbLine
 10
255.9797820597829
 20
197.7749204195917
 30
0.0000000000000000
 11
251.5989505401230
 21
205.3627431910424
 31
0.0000000000000000
  0
LINE
  5
D0
100
AcDbEntity
  8
MAIN0
  6
CONTINUOUS
 62
3
100
AcDbLine
 10
270.3606135794414
 20
172.8665895724530
 30
0.0000000000000000
 11
265.9797820597822
 21
180.4544123439025
 31
0.0000000000000000
  0
LINE
  5
D1
100
AcDbEntity
  8
MAIN0
  6
HIDDEN
 62
3
100
AcDbLine
 10
297.1566965959758
 20
197.7749204195914
 30
0.0000000000000000
 11
287.1566965959752
 21
180.4544123439030
 31
0.0000000000000000
  0
LINE
  5
D2
100
AcDbEntity
  8
MAIN0
  6
CONTINUOUS
 62
3
100
AcDbLine
 10
287.1566965959752
 20
180.4544123439030
 30
0.0000000000000000
 11
282.7758650763146
 21
172.8665895724525
 31
0.0000000000000000
  0
LINE
  5
D3
100
AcDbEntity
  8
MAIN0
  6
CONTINUOUS
 62
3
100
AcDbLine
 10
301.5375281156356
 20
205.3627431910406
 30
0.0000000000000000
 11
297.1566965959759
 21
197.7749204195914
 31
0.0000000000000000
  0
MTEXT
  5
D4
100
AcDbEntity
  8
MAIN0
  6
CONTINUOUS
 62
4
100
AcDbMText
 10
239.5367115656386
 20
227.4782362702009
 30
0.0000000000000000
 40
3.000000000000000
 41
0.0000000000000000
 71
     1
 72
     1
  1
{\H0.93x;{ＰＬＳ０４}}
 11
-0.4999999999999981
 21
-0.8660254037844397
 31
0.0000000000000000
  7
KNJYOKO
  0
ARC
  5
D5
100
AcDbEntity
  8
MAIN0
  6
CONTINUOUS
 62
3
100
AcDbCircle
 10
276.5682393278790
 20
198.1146663817336
 30
0.0000000000000000
 40
40.00000000000000
100
AcDbArc
 50
105.1646805123458
 51
194.8353194876543
  0
LINE
  5
D6
100
AcDbEntity
  8
MAIN0
  6
CENTER
 62
3
100
AcDbLine
 10
305.3877986181560
 20
248.0316073248106
 30
0.0000000000000000
 11
312.2134184017642
 21
259.8539275831045
 31
0.0000000000000000
  0
ARC
  5
D7
100
AcDbEntity
  8
MAIN0
  6
CONTINUOUS
 62
3
100
AcDbCircle
 10
276.5682393278789
 20
198.1146663817335
 30
0.0000000000000000
 40
37.00000000000000
100
AcDbArc
 50
106.3221096814309
 51
193.6778903185688
  0
ARC
  5
D8
100
AcDbEntity
  8
MAIN0
  6
CONTINUOUS
 62
3
100
AcDbCircle
 10
276.5682393278789
 20
198.1146663817335
 30
0.0000000000000000
 40
37.00000000000000
100
AcDbArc
 50
226.3221096814312
 51
313.6778903185692
  0
ARC
  5
D9
100
AcDbEntity
  8
MAIN0
  6
CONTINUOUS
 62
3
100
AcDbCircle
 10
276.5682393278789
 20
198.1146663817335
 30
0.0000000000000000
 40
37.00000000000000
100
AcDbArc
 50
346.3221096814314
 51
433.6778903185687
  0
LINE
  5
DA
100
AcDbEntity
  8
MAIN0
  6
CENTER
 62
3
100
AcDbLine
 10
286.1445439966723
 20
162.3754108090381
 30
0.0000000000000000
 11
283.1316553999292
 21
173.6196641296283
 31
0.0000000000000000
  0
LINE
  5
DB
100
AcDbEntity
  8
MAIN0
  6
CENTER
 62
3
100
AcDbLine
 10
266.9919346590858
 20
162.3754108090380
 30
0.0000000000000000
 11
270.0048232558289
 21
173.6196641296283
 31
0.0000000000000000
  0
CIRCLE
  5
DC
100
AcDbEntity
  8
MAIN0
  6
CONTINUOUS
 62
3
100
AcDbCircle
 10
268.5448489297008
 20
168.1709657667725
 30
0.0000000000000000
 40
2.500000000000000
  0
CIRCLE
  5
DD
100
AcDbEntity
  8
MAIN0
  6
CONTINUOUS
 62
3
100
AcDbCircle
 10
268.5448489297008
 20
168.1709657667725
 30
0.0000000000000000
 40
2.100000000000000
  0
LINE
  5
DE
100
AcDbEntity
  8
MAIN0
  6
CENTER
 62
3
100
AcDbLine
 10
312.3074949005747
 20
207.6909710505268
 30
0.0000000000000000
 11
301.0632415799845
 21
204.6780824537837
 31
0.0000000000000000
  0
CIRCLE
  5
DF
100
AcDbEntity
  8
MAIN0
  6
CONTINUOUS
 62
3
100
AcDbCircle
 10
306.5119399428402
 20
206.1380567799117
 30
0.0000000000000000
 40
2.500000000000000
  0
CIRCLE
  5
E0
100
AcDbEntity
  8
MAIN0
  6
CONTINUOUS
 62
3
100
AcDbCircle
 10
306.5119399428402
 20
206.1380567799117
 30
0.0000000000000000
 40
2.100000000000000
  0
CIRCLE
  5
E1
100
AcDbEntity
  8
MAIN0
  6
CONTINUOUS
 62
3
100
AcDbCircle
 10
254.6479291110962
 20
220.0349765985167
 30
0.0000000000000000
 40
2.500000000000000
  0
CIRCLE
  5
E2
100
AcDbEntity
  8
MAIN0
  6
CONTINUOUS
 62
3
100
AcDbCircle
 10
254.6479291110962
 20
220.0349765985167
 30
0.0000000000000000
 40
2.100000000000000
  0
LINE
  5
E3
100
AcDbEntity
  8
MAIN0
  6
CENTER
 62
3
100
AcDbLine
 10
240.8289837551833
 20
207.6909710505266
 30
0.0000000000000000
 11
252.0732370757735
 21
204.6780824537835
 31
0.0000000000000000
  0
CIRCLE
  5
E4
100
AcDbEntity
  8
MAIN0
  6
CONTINUOUS
 62
3
100
AcDbCircle
 10
246.6245387129178
 20
206.1380567799115
 30
0.0000000000000000
 40
2.500000000000000
  0
CIRCLE
  5
E5
100
AcDbEntity
  8
MAIN0
  6
CONTINUOUS
 62
3
100
AcDbCircle
 10
246.6245387129178
 20
206.1380567799115
 30
0.0000000000000000
 40
2.100000000000000
  0
LINE
  5
E6
100
AcDbEntity
  8
MAIN0
  6
CENTER
 62
3
100
AcDbLine
 10
302.7311902317812
 20
224.2776172856359
 30
0.0000000000000000
 11
294.4998255079341
 21
216.0462525617888
 31
0.0000000000000000
  0
CIRCLE
  5
E7
100
AcDbEntity
  8
MAIN0
  6
CONTINUOUS
 62
3
100
AcDbCircle
 10
298.4885495446620
 20
220.0349765985166
 30
0.0000000000000000
 40
2.500000000000000
  0
CIRCLE
  5
E8
100
AcDbEntity
  8
MAIN0
  6
CONTINUOUS
 62
3
100
AcDbCircle
 10
298.4885495446620
 20
220.0349765985166
 30
0.0000000000000000
 40
2.100000000000000
  0
LINE
  5
E9
100
AcDbEntity
  8
MAIN0
  6
CENTER
 62
3
100
AcDbLine
 10
208.2224780756404
 20
237.5741100386834
 30
0.0000000000000000
 11
231.3741416803260
 21
224.2074908243306
 31
0.0000000000000000
  0
ARC
  5
EA
100
AcDbEntity
  8
MAIN0
  6
CONTINUOUS
 62
3
100
AcDbCircle
 10
276.5682393278790
 20
198.1146663817336
 30
0.0000000000000000
 40
74.00000000000000
100
AcDbArc
 50
302.7204433663759
 51
597.2795566336243
  0
ARC
  5
EB
100
AcDbEntity
  8
MAIN0
  6
HIDDEN
 62
3
100
AcDbCircle
 10
276.5682393278790
 20
198.1146663817336
 30
0.0000000000000000
 40
74.00000000000000
100
AcDbArc
 50
237.2795566336244
 51
302.7204433663758
  0
LINE
  5
EC
100
AcDbEntity
  8
MAIN0
  6
PHANTOM
 62
3
100
AcDbLine
 10
236.5682393278792
 20
87.61466638173388
 30
0.0000000000000000
 11
316.5682393278792
 21
87.61466638173388
 31
0.0000000000000000
  0
LINE
  5
ED
100
AcDbEntity
  8
MAIN0
  6
PHANTOM
 62
3
100
AcDbLine
 10
316.5682393278792
 20
122.6146663817339
 30
0.0000000000000000
 11
316.5682393278792
 21
87.61466638173388
 31
0.0000000000000000
  0
LINE
  5
EE
100
AcDbEntity
  8
MAIN0
  6
PHANTOM
 62
3
100
AcDbLine
 10
236.5682393278793
 20
122.6146663817339
 30
0.0000000000000000
 11
236.5682393278793
 21
87.61466638173388
 31
0.0000000000000000
  0
DIMENSION
  5
F5
100
AcDbEntity
  8
MAIN0
  6
CONTINUOUS
 62
3
100
AcDbDimension
  2
*D2
 10
316.5682393278792
 20
93.72455687664609
 30
0.0000000000000000
 11
276.5682393278792
 21
94.22455687664609
 31
0.0000000000000000
 70
32
  3
MAIN001
100
AcDbAlignedDimension
 13
236.5682393278793
 23
122.6146663817339
 33
0.0000000000000000
 14
316.5682393278792
 24
122.6146663817339
 34
0.0000000000000000
100
AcDbRotatedDimension
1001
ACAD
1000
DSTYLE
1002
{
1070
   173
1070
     1
1070
     6
1000
_OPEN
1070
     7
1000
_OPEN
1070
    41
1040
2.000000
1002
}
  0
DIMENSION
  5
FE
100
AcDbEntity
  8
MAIN0
  6
CONTINUOUS
 62
3
100
AcDbDimension
  2
*D3
 10
375.1211565319995
 20
122.6146663817339
 30
0.0000000000000000
 11
374.6211565319995
 21
160.3646663817337
 31
0.0000000000000000
 70
32
  3
MAIN001
100
AcDbAlignedDimension
 13
356.1402059541116
 23
198.1146663817336
 33
0.0000000000000000
 14
316.5682393278792
 24
122.6146663817339
 34
0.0000000000000000
 50
90.00000000000000
100
AcDbRotatedDimension
1001
ACAD
1000
DSTYLE
1002
{
1070
   173
1070
     1
1070
     6
1000
_OPEN
1070
     7
1000
_OPEN
1070
    41
1040
2.000000
1002
}
  0
DIMENSION
  5
107
100
AcDbEntity
  8
MAIN0
  6
CONTINUOUS
 62
3
100
AcDbDimension
  2
*D4
 10
383.5219450648495
 20
87.61466638173388
 30
0.0000000000000000
 11
383.0219450648495
 21
142.8646663817337
 31
0.0000000000000000
 70
32
  1
\A1;（110.5）
  3
MAIN001
100
AcDbAlignedDimension
 13
356.1402059541116
 23
198.1146663817336
 33
0.0000000000000000
 14
316.5682393278792
 24
87.61466638173388
 34
0.0000000000000000
 50
90.00000000000000
100
AcDbRotatedDimension
1001
ACAD
1000
DSTYLE
1002
{
1070
   173
1070
     1
1070
     6
1000
_OPEN
1070
     7
1000
_OPEN
1070
    41
1040
2.000000
1070
   340
1005
108
1002
}
  0
DIMENSION
  5
111
100
AcDbEntity
  8
MAIN0
  6
CONTINUOUS
 62
3
100
AcDbDimension
  2
*D5
 10
300.0682393278788
 20
102.5193309320466
 30
0.0000000000000000
 11
276.5682393278790
 21
103.0193309320466
 31
0.0000000000000000
 70
32
  3
MAIN001
100
AcDbAlignedDimension
 13
253.0682393278792
 23
117.7614014976417
 33
0.0000000000000000
 14
300.0682393278788
 24
117.7614014976419
 34
0.0000000000000000
100
AcDbRotatedDimension
1001
ACAD
1000
DSTYLE
1002
{
1070
   173
1070
     1
1070
     6
1000
_OPEN
1070
     7
1000
_OPEN
1070
    41
1040
2.000000
1002
}
  0
DIMENSION
  5
118
100
AcDbEntity
  8
MAIN0
  6
CONTINUOUS
 62
3
100
AcDbDimension
  2
*D6
 10
316.5239885484114
 20
249.3839369463314
 30
0.0000000000000000
 11
303.0064478527364
 21
232.8522872042941
 31
0.0000000000000000
 70
163
  3
MAIN001
100
AcDbDiametricDimension
 15
236.6124901073466
 25
146.8453958171359
 35
0.0000000000000000
1001
ACAD
1000
DSTYLE
1002
{
1070
   287
1070
     2
1070
   173
1070
     1
1070
     6
1000
_OPEN
1070
     7
1000
_OPEN
1070
    41
1040
2.000000
1070
   272
1070
     1
1070
    47
1040
0.200000
1070
    48
1040
0.200000
1070
    71
1070
     1
1002
}
  0
ARC
  5
119
100
AcDbEntity
  8
MAIN0
  6
CONTINUOUS
 62
3
100
AcDbCircle
 10
276.5682393278790
 20
198.1146663817336
 30
0.0000000000000000
 40
40.00000000000000
100
AcDbArc
 50
345.1646805123458
 51
410.7618208827039
  0
ARC
  5
11A
100
AcDbEntity
  8
MAIN0
  6
CONTINUOUS
 62
3
100
AcDbCircle
 10
276.5682393278790
 20
198.1146663817336
 30
0.0000000000000000
 40
40.00000000000000
100
AcDbArc
 50
59.07174332234234
 51
74.83531948765432
  0
LINE
  5
11B
100
AcDbEntity
  8
MAIN0
  6
CENTER
 62
3
100
AcDbLine
 10
252.8755295014517
 20
211.7936587778532
 30
0.0000000000000000
 11
263.7075671247397
 21
205.5397789401757
 31
0.0000000000000000
  0
LINE
  5
11C
100
AcDbEntity
  8
MAIN0
  6
CENTER
 62
3
100
AcDbLine
 10
283.8524329164655
 20
193.9091352525340
 30
0.0000000000000000
 11
342.8835832677256
 21
159.8274847066608
 31
0.0000000000000000
  0
ARC
  5
11D
100
AcDbEntity
  8
MAIN0
  6
CENTER
 62
3
100
AcDbCircle
 10
276.5682393278790
 20
198.1146663817336
 30
0.0000000000000000
 40
31.00000000000000
100
AcDbArc
 50
5.306795429893218
 51
55.73156214555105
  0
ARC
  5
11E
100
AcDbEntity
  8
MAIN0
  6
CENTER
 62
3
100
AcDbCircle
 10
276.5682393278790
 20
198.1146663817336
 30
0.0000000000000000
 40
31.00000000000000
100
AcDbArc
 50
117.1044610930036
 51
174.5084438796459
  0
ARC
  5
11F
100
AcDbEntity
  8
MAIN0
  6
CENTER
 62
3
100
AcDbCircle
 10
276.5682393278790
 20
198.1146663817336
 30
0.0000000000000000
 40
31.00000000000000
100
AcDbArc
 50
249.2177696710507
 51
311.1809366310121
  0
LEADER
  5
120
100
AcDbEntity
  8
MAIN0
  6
CONTINUOUS
 62
3
100
AcDbLeader
  3
MAIN001
 73
     0
 75
     1
 40
3.099999904632568
 41
29.79900001937151
 76
     3
 10
254.0004513069631
 20
222.4496758537356
 30
0.0000000000000000
 10
228.3786388154599
 20
269.2282198865212
 30
0.0000000000000000
 10
226.5916388681206
 20
269.2282198865212
 30
0.0000000000000000
340
121
213
0.0000000000000000
223
-0.5000000000000000
233
0.0000000000000000
1001
ACAD
1000
DSTYLE
1002
{
1070
   147
1040
0.0
1070
    77
1070
     1
1070
   173
1070
     1
1070
     6
1000
_OPEN
1070
     7
1000
_OPEN
1002
}
  0
MTEXT
  5
121
102
{ACAD_REACTORS
330
120
102
}
100
AcDbEntity
  8
MAIN0
  6
CONTINUOUS
 62
3
100
AcDbMText
 10
196.7926388487491
 20
272.8282197911537
 30
0.0000000000000000
 40
3.099999904632568
 41
0.0000000000000000
 71
     1
 72
     1
  1
{\H0.71x;{3×2-M5 深10\P3×2-M5 DEPTH10}}
 11
1.000000000000000
 21
0.0000000000000000
 31
0.0000000000000000
  7
KNJYOKO
  0
LEADER
  5
122
100
AcDbEntity
  8
MAIN0
  6
CONTINUOUS
 62
3
100
AcDbLeader
  3
MAIN001
 73
     0
 74
     0
 75
     1
 40
3.099999904632568
 41
8.801000004470325
 76
     3
 10
326.9382303541152
 20
243.1715695898510
 30
0.0000000000000000
 10
351.5682393278790
 20
238.1146663817336
 30
0.0000000000000000
 10
353.3532392752184
 20
238.1146663817336
 30
0.0000000000000000
340
123
213
0.0000000000000000
223
-0.5000000000000000
233
0.0000000000000000
1001
ACAD
1000
DSTYLE
1002
{
1070
   147
1040
0.0
1070
    77
1070
     1
1070
   173
1070
     1
1070
     6
1000
_OPEN
1070
     7
1000
_OPEN
1002
}
  0
MTEXT
  5
123
102
{ACAD_REACTORS
330
122
102
}
100
AcDbEntity
  8
MAIN0
  6
CONTINUOUS
 62
3
100
AcDbMText
 10
353.3542392752183
 20
241.7146662863662
 30
0.0000000000000000
 40
3.099999904632568
 41
0.0000000000000000
 71
     1
 72
     1
  1
{\H0.70x;{4-\U+22059}}
 11
1.000000000000000
 21
0.0000000000000000
 31
0.0000000000000000
  7
STANDARD
  0
LEADER
  5
124
100
AcDbEntity
  8
MAIN0
  6
CONTINUOUS
 62
3
100
AcDbLeader
  3
MAIN001
 73
     0
 74
     0
 75
     1
 40
3.099999904632568
 41
8.301000004470325
 76
     3
 10
309.1517084137503
 20
258.4054466468592
 30
0.0000000000000000
 10
309.5649756521819
 20
278.2056994462824
 30
0.0000000000000000
 10
311.3499755995212
 20
278.2056994462824
 30
0.0000000000000000
340
125
213
0.0000000000000000
223
-0.5000000000000000
233
0.0000000000000000
1001
ACAD
1000
DSTYLE
1002
{
1070
   147
1040
0.0
1070
    77
1070
     1
1070
   173
1070
     1
1070
     6
1000
_OPEN
1070
     7
1000
_OPEN
1002
}
  0
MTEXT
  5
125
102
{ACAD_REACTORS
330
124
102
}
100
AcDbEntity
  8
MAIN0
  6
CONTINUOUS
 62
3
100
AcDbMText
 10
311.3509755995212
 20
281.8056993509150
 30
0.0000000000000000
 40
3.099999904632568
 41
0.0000000000000000
 71
     1
 72
     1
  1
{\H0.70x;{6-M8}}
 11
1.000000000000000
 21
0.0000000000000000
 31
0.0000000000000000
  7
STANDARD
  0
CIRCLE
  5
126
100
AcDbEntity
  8
MAIN0
  6
HIDDEN
 62
3
100
AcDbCircle
 10
276.5682393278790
 20
135.1146663817647
 30
0.0000000000000000
 40
4.283000000000000
  0
CIRCLE
  5
127
100
AcDbEntity
  8
MAIN0
  6
HIDDEN
 62
3
100
AcDbCircle
 10
276.5682393278790
 20
135.1146663817647
 30
0.0000000000000000
 40
4.864000000000001
  0
ARC
  5
128
100
AcDbEntity
  8
MAIN0
  6
CONTINUOUS
 62
3
100
AcDbCircle
 10
276.5682393278790
 20
198.1146663817336
 30
0.0000000000000000
 40
26.00000000000000
100
AcDbArc
 50
16.18693853967714
 51
43.81306146031845
  0
ARC
  5
129
100
AcDbEntity
  8
MAIN0
  6
CONTINUOUS
 62
3
100
AcDbCircle
 10
276.5682393278790
 20
198.1146663817336
 30
0.0000000000000000
 40
26.00000000000000
100
AcDbArc
 50
136.1869385396771
 51
163.8130614603184
  0
ARC
  5
12A
100
AcDbEntity
  8
MAIN0
  6
CONTINUOUS
 62
3
100
AcDbCircle
 10
276.5682393278790
 20
198.1146663817336
 30
0.0000000000000000
 40
26.00000000000000
100
AcDbArc
 50
256.1869385396773
 51
283.8130614603184
  0
LINE
  5
12B
100
AcDbEntity
  8
MAIN0
  6
HIDDEN
 62
3
100
AcDbLine
 10
299.7547728073372
 20
196.2749204195867
 30
0.0000000000000000
 11
289.7547728073381
 21
178.9544123438974
 31
0.0000000000000000
  0
LINE
  5
12C
100
AcDbEntity
  8
MAIN0
  6
CENTER
 62
3
100
AcDbLine
 10
293.0682393278790
 20
158.1083878697052
 30
0.0000000000000000
 11
293.0682393278790
 21
178.5021272333519
 31
0.0000000000000000
  0
CIRCLE
  5
12D
100
AcDbEntity
  8
MAIN0
  6
HIDDEN
 62
3
100
AcDbCircle
 10
260.0682393278790
 20
168.3867333893797
 30
0.0000000000000000
 40
4.283000000000000
  0
CIRCLE
  5
12E
100
AcDbEntity
  8
MAIN0
  6
HIDDEN
 62
3
100
AcDbCircle
 10
260.0682393278790
 20
168.3867333893797
 30
0.0000000000000000
 40
4.864000000000001
  0
DIMENSION
  5
134
100
AcDbEntity
  8
MAIN0
  6
CONTINUOUS
 62
3
100
AcDbDimension
  2
*D7
 10
276.5682393278790
 20
198.1146663817337
 30
0.0000000000000000
 11
274.6048166991184
 21
189.1208693400428
 31
0.0000000000000000
 70
164
  3
MAIN001
100
AcDbRadialDimension
 15
271.1314511024337
 25
164.5521674612190
 35
0.0000000000000000
1001
ACAD
1000
DSTYLE
1002
{
1070
   173
1070
     1
1070
     6
1000
_OPEN
1070
     7
1000
_OPEN
1070
    41
1040
2.000000
1070
   340
1005
108
1002
}
  0
LINE
  5
135
100
AcDbEntity
  8
MAIN0
  6
CENTER
 62
3
100
AcDbLine
 10
260.0682393278790
 20
160.2041408137019
 30
0.0000000000000000
 11
260.0682393278790
 21
176.1585600142372
 31
0.0000000000000000
  0
DIMENSION
  5
13E
100
AcDbEntity
  8
MAIN0
  6
CONTINUOUS
 62
3
100
AcDbDimension
  2
*D8
 10
293.0682393278790
 20
107.8726691364964
 30
0.0000000000000000
 11
276.5682393278790
 21
108.3726691364964
 31
0.0000000000000000
 70
32
  3
MAIN001
100
AcDbAlignedDimension
 13
260.0682393278790
 23
160.2041408137019
 33
0.0000000000000000
 14
293.0682393278790
 24
158.1083878697052
 34
0.0000000000000000
100
AcDbRotatedDimension
1001
ACAD
1000
DSTYLE
1002
{
1070
   173
1070
     1
1070
     6
1000
_OPEN
1070
     7
1000
_OPEN
1070
    41
1040
2.000000
1002
}
  0
LINE
  5
13F
100
AcDbEntity
  8
MAIN0
  6
PHANTOM
 62
3
100
AcDbLine
 10
293.4729697974406
 20
234.3669778632306
 30
0.0000000000000000
 11
283.3301315156631
 21
212.6155909743514
 31
0.0000000000000000
  0
ARC
  5
140
100
AcDbEntity
  8
MAIN0
  6
CONTINUOUS
 62
3
100
AcDbCircle
 10
276.5682393278790
 20
198.1146663817336
 30
0.0000000000000000
 40
54.99999999999999
100
AcDbArc
 50
114.9999999999241
 51
244.9999999999208
  0
ARC
  5
141
100
AcDbEntity
  8
MAIN0
  6
CONTINUOUS
 62
3
100
AcDbCircle
 10
276.5682393278790
 20
198.1146663817336
 30
0.0000000000000000
 40
54.99999999999999
100
AcDbArc
 50
244.9999999999208
 51
354.9999999999241
  0
ARC
  5
142
100
AcDbEntity
  8
MAIN0
  6
CONTINUOUS
 62
3
100
AcDbCircle
 10
276.5682393278790
 20
198.1146663817336
 30
0.0000000000000000
 40
54.99999999999999
100
AcDbArc
 50
354.9999999999240
 51
425.0000000000764
  0
ARC
  5
143
100
AcDbEntity
  8
MAIN0
  6
HIDDEN
 62
3
100
AcDbCircle
 10
276.5682393278790
 20
198.1146663817336
 30
0.0000000000000000
 40
16.00000000000000
100
AcDbArc
 50
138.6394391758959
 51
364.7167717004392
  0
ARC
  5
144
100
AcDbEntity
  8
MAIN0
  6
HIDDEN
 62
3
100
AcDbCircle
 10
276.5682393278790
 20
198.1146663817336
 30
0.0000000000000000
 40
16.00000000000000
100
AcDbArc
 50
33.38375599710239
 51
67.13115111557480
  0
DIMENSION
  5
14C
100
AcDbEntity
  8
MAIN0
  6
CONTINUOUS
 62
3
100
AcDbDimension
  2
*D9
 10
355.6998031546668
 20
198.1146663817336
 30
0.0000000000000000
 11
351.5758080493992
 21
174.2376907554952
 31
0.0000000000000000
 70
162
  1
\A1;30\U+00B0\H0.903226x;\U+00B10.3\U+00B0
  3
MAIN001
100
AcDb2LineAngularDimension
 13
342.8835832677256
 23
159.8274847066607
 33
0.0000000000000000
 14
342.0175578639412
 24
160.3274847066607
 34
0.0000000000000000
 15
276.5682393278792
 25
198.1146663817336
 35
0.0000000000000000
 16
353.0034605028151
 26
177.6339105946153
 36
0.0000000000000000
1001
ACAD
1000
DSTYLE
1002
{
1070
   173
1070
     1
1070
     6
1000
_OPEN
1070
     7
1000
_OPEN
1070
    41
1040
2.000000
1002
}
  0
DIMENSION
  5
154
100
AcDbEntity
  8
MAIN0
  6
CONTINUOUS
 62
3
100
AcDbDimension
  2
*D10
 10
330.3083546980565
 20
251.8547817519111
 30
0.0000000000000000
 11
349.2143317568032
 21
228.2056631192034
 31
0.0000000000000000
 70
162
  3
MAIN001
100
AcDb2LineAngularDimension
 13
355.6998031546668
 23
198.1146663817336
 33
0.0000000000000000
 14
276.5682393278792
 24
198.1146663817336
 34
0.0000000000000000
 15
329.6012479168700
 25
251.1476749707246
 35
0.0000000000000000
 16
349.6762715230587
 26
228.3970048353859
 36
0.0000000000000000
1001
ACAD
1000
DSTYLE
1002
{
1070
   173
1070
     1
1070
     6
1000
_OPEN
1070
     7
1000
_OPEN
1070
    41
1040
2.000000
1002
}
  0
DIMENSION
  5
15D
100
AcDbEntity
  8
MAIN0
  6
CONTINUOUS
 62
3
100
AcDbDimension
  2
*D11
 10
312.2134184017642
 20
259.8539275831045
 30
0.0000000000000000
 11
325.0448639171602
 21
261.2906335364171
 31
0.0000000000000000
 70
162
  3
MAIN001
100
AcDb2LineAngularDimension
 13
330.3083546980565
 23
251.8547817519111
 33
0.0000000000000000
 14
329.6012479168700
 24
251.1476749707246
 34
0.0000000000000000
 15
311.7134184017673
 25
258.9879021793183
 35
0.0000000000000000
 16
324.7404832026566
 26
260.8939568662710
 36
0.0000000000000000
1001
ACAD
1000
DSTYLE
1002
{
1070
   173
1070
     1
1070
     6
1000
_OPEN
1070
     7
1000
_OPEN
1070
    41
1040
2.000000
1002
}
  0
DIMENSION
  5
166
100
AcDbEntity
  8
MAIN0
  6
CONTINUOUS
 62
3
100
AcDbDimension
  2
*D12
 10
276.5682393278790
 20
276.8818488295172
 30
0.0000000000000000
 11
292.2114612217078
 21
276.1945970059356
 31
0.0000000000000000
 70
162
  3
MAIN001
100
AcDb2LineAngularDimension
 13
312.2134184017642
 23
259.8539275831045
 33
0.0000000000000000
 14
311.7134184017673
 24
258.9879021793183
 34
0.0000000000000000
 15
276.5682393278790
 25
275.8818488295172
 35
0.0000000000000000
 16
297.0489951148605
 26
274.5498875567063
 36
0.0000000000000000
1001
ACAD
1000
DSTYLE
1002
{
1070
   173
1070
     1
1070
     6
1000
_OPEN
1070
     7
1000
_OPEN
1070
    41
1040
2.000000
1002
}
  0
DIMENSION
  5
16F
100
AcDbEntity
  8
MAIN0
  6
CONTINUOUS
 62
3
100
AcDbDimension
  2
*D13
 10
222.8281239577015
 20
251.8547817519113
 30
0.0000000000000000
 11
246.0945591580443
 21
271.6846383431688
 31
0.0000000000000000
 70
162
  3
MAIN001
100
AcDb2LineAngularDimension
 13
276.5682393278790
 23
276.8818488295172
 33
0.0000000000000000
 14
276.5682393278790
 24
275.8818488295172
 34
0.0000000000000000
 15
223.5352307388880
 25
251.1476749707248
 35
0.0000000000000000
 16
246.2859008742269
 26
271.2226985769131
 36
0.0000000000000000
1001
ACAD
1000
DSTYLE
1002
{
1070
   173
1070
     1
1070
     6
1000
_OPEN
1070
     7
1000
_OPEN
1070
    41
1040
2.000000
1002
}
  0
DIMENSION
  5
178
100
AcDbEntity
  8
MAIN0
  6
CONTINUOUS
 62
3
100
AcDbDimension
  2
*D14
 10
240.8289837551833
 20
207.6909710505266
 30
0.0000000000000000
 11
207.6052821107990
 21
237.9304482951271
 31
0.0000000000000000
 70
162
  3
MAIN001
100
AcDb2LineAngularDimension
 13
222.8281239577015
 23
251.8547817519113
 33
0.0000000000000000
 14
223.5352307388880
 24
251.1476749707248
 34
0.0000000000000000
 15
241.7949095814724
 25
207.4321520054241
 35
0.0000000000000000
 16
208.0382948126912
 26
237.6804482951270
 36
0.0000000000000000
1001
ACAD
1000
DSTYLE
1002
{
1070
   173
1070
     1
1070
     6
1000
_OPEN
1070
     7
1000
_OPEN
1070
    41
1040
2.000000
1002
}
  0
LEADER
  5
179
100
AcDbEntity
  8
MAIN0
  6
CONTINUOUS
 62
3
100
AcDbLeader
  3
MAIN001
 73
     0
 74
     0
 75
     1
 40
3.099999904632568
 41
14.60100000894067
 76
     3
 10
296.2039360644744
 20
164.6684136107558
 30
0.0000000000000000
 10
327.9621940964655
 20
127.0093639976835
 30
0.0000000000000000
 10
329.7471940438048
 20
127.0093639976835
 30
0.0000000000000000
340
17A
213
0.0000000000000000
223
-0.5000000000000000
233
0.0000000000000000
1001
ACAD
1000
DSTYLE
1002
{
1070
   147
1040
0.0
1070
    77
1070
     1
1070
   173
1070
     1
1070
     6
1000
_OPEN
1070
     7
1000
_OPEN
1002
}
  0
MTEXT
  5
17A
102
{ACAD_REACTORS
330
179
102
}
100
AcDbEntity
  8
MAIN0
  6
CONTINUOUS
 62
3
100
AcDbMText
 10
329.7481940438048
 20
130.6093639023160
 30
0.0000000000000000
 40
3.099999904632568
 41
0.0000000000000000
 71
     1
 72
     1
  1
{\H0.70x;{3-Rc1/8}}
 11
1.000000000000000
 21
0.0000000000000000
 31
0.0000000000000000
  7
STANDARD
  0
MTEXT
  5
17B
100
AcDbEntity
  8
MAIN0
  6
CONTINUOUS
 62
3
100
AcDbMText
 10
257.0682393278790
 20
171.1867333416960
 30
0.0000000000000000
 40
2.799999952316284
 41
0.0000000000000000
 71
     1
 72
     1
  1
{\H0.92x;{閉\PCLOSE}}
 11
1.000000000000000
 21
0.0000000000000000
 31
0.0000000000000000
  7
KNJYOKO
  0
MTEXT
  5
17C
100
AcDbEntity
  8
MAIN0
  6
CONTINUOUS
 62
3
100
AcDbMText
 10
293.0682393278790
 20
171.1867333416959
 30
0.0000000000000000
 40
2.799999952316284
 41
0.0000000000000000
 71
     1
 72
     1
  1
{\H0.91x;{開\POPEN}}
 11
1.000000000000000
 21
0.0000000000000000
 31
0.0000000000000000
  7
KNJYOKO
  0
CIRCLE
  5
17D
100
AcDbEntity
  8
MAIN0
  6
HIDDEN
 62
3
100
AcDbCircle
 10
260.0682393278790
 20
168.3867333893797
 30
0.0000000000000000
 40
7.000000000000000
  0
ARC
  5
17E
100
AcDbEntity
  8
MAIN0
  6
HIDDEN
 62
3
100
AcDbCircle
 10
293.0682393278790
 20
168.3867333893797
 30
0.0000000000000000
 40
7.000000000000000
100
AcDbArc
 50
322.4425541559880
 51
657.8399948442237
  0
LINE
  5
17F
100
AcDbEntity
  8
MAIN0
  6
CONTINUOUS
 62
3
100
AcDbLine
 10
255.6734131234006
 20
242.9237657802551
 30
0.0000000000000000
 11
227.3150078258179
 21
193.8055669832118
 31
0.0000000000000000
  0
LINE
  5
180
100
AcDbEntity
  8
MAIN0
  6
CONTINUOUS
 62
3
100
AcDbLine
 10
248.2098340302968
 20
157.6146663817339
 30
0.0000000000000000
 11
304.9266446254617
 21
157.6146663817336
 31
0.0000000000000000
  0
ARC
  5
181
100
AcDbEntity
  8
MAIN0
  6
CONTINUOUS
 62
3
100
AcDbCircle
 10
276.5682393278790
 20
198.1146663817336
 30
0.0000000000000000
 40
40.00000000000000
100
AcDbArc
 50
225.1646805123457
 51
314.8353194876542
  0
LINE
  5
182
100
AcDbEntity
  8
MAIN0
  6
CENTER
 62
3
100
AcDbLine
 10
276.5682393278790
 20
115.3647419697929
 30
0.0000000000000000
 11
276.5682393278790
 21
193.8051175346683
 31
0.0000000000000000
  0
LINE
  5
183
100
AcDbEntity
  8
MAIN0
  6
CENTER
 62
3
100
AcDbLine
 10
276.5682393278790
 20
193.8051175346683
 30
0.0000000000000000
 11
276.5682393278790
 21
279.1308761485146
 31
0.0000000000000000
  0
CIRCLE
  5
184
100
AcDbEntity
  8
MAIN0
  6
HIDDEN
 62
3
100
AcDbCircle
 10
276.5682393278790
 20
135.1146663817336
 30
0.0000000000000000
 40
7.000000000000000
  0
DIMENSION
  5
18D
100
AcDbEntity
  8
MAIN0
  6
CONTINUOUS
 62
3
100
AcDbDimension
  2
*D15
 10
366.3385192470350
 20
135.1146663817335
 30
0.0000000000000000
 11
365.8385192470350
 21
166.6146663817336
 31
0.0000000000000000
 70
32
  3
MAIN001
100
AcDbAlignedDimension
 13
356.1402059541116
 23
198.1146663817336
 33
0.0000000000000000
 14
305.6295401824428
 24
135.1146663817335
 34
0.0000000000000000
 50
90.00000000000000
100
AcDbRotatedDimension
1001
ACAD
1000
DSTYLE
1002
{
1070
   173
1070
     1
1070
     6
1000
_OPEN
1070
     7
1000
_OPEN
1070
    41
1040
2.000000
1002
}
  0
ARC
  5
18E
100
AcDbEntity
  8
MAIN0
  6
CENTER
 62
3
100
AcDbCircle
 10
276.5682393278790
 20
198.1146663817336
 30
0.0000000000000000
 40
33.99999999996894
100
AcDbArc
 50
227.1046351766600
 51
315.8960372313715
  0
LINE
  5
18F
100
AcDbEntity
  8
MAIN0
  6
PHANTOM
 62
3
100
AcDbLine
 10
216.7734417357399
 20
227.0470389240215
 30
0.0000000000000000
 11
216.7734417357329
 21
232.6372088676984
 31
0.0000000000000000
  0
LINE
  5
190
100
AcDbEntity
  8
MAIN0
  6
PHANTOM
 62
3
100
AcDbLine
 10
218.9385052452451
 20
225.7970389240031
 30
0.0000000000000000
 11
223.7797344279312
 21
228.5921238958594
 31
0.0000000000000000
  0
LINE
  5
191
100
AcDbEntity
  8
MAIN0
  6
PHANTOM
 62
3
100
AcDbLine
 10
223.7797344279319
 20
234.1822938395019
 30
0.0000000000000000
 11
223.7797344279113
 21
228.5921238958250
 31
0.0000000000000000
  0
LINE
  5
192
100
AcDbEntity
  8
MAIN0
  6
PHANTOM
 62
3
100
AcDbLine
 10
221.6146709184330
 20
235.4322938395310
 30
0.0000000000000000
 11
216.7734417357330
 21
232.6372088676986
 31
0.0000000000000000
  0
ARC
  5
193
100
AcDbEntity
  8
MAIN0
  6
CENTER
 62
3
100
AcDbCircle
 10
276.5682393278790
 20
198.1146663817336
 30
0.0000000000000000
 40
65.00000000000001
100
AcDbArc
 50
324.0819437235625
 51
337.5048344799665
  0
ARC
  5
194
100
AcDbEntity
  8
MAIN0
  6
CENTER
 62
3
100
AcDbCircle
 10
276.5682393278790
 20
198.1146663817336
 30
0.0000000000000000
 40
65.00000000000001
100
AcDbArc
 50
143.8442290008515
 51
158.5564863237744
  0
DIMENSION
  5
19C
100
AcDbEntity
  8
MAIN0
  6
CONTINUOUS
 62
3
100
AcDbDimension
  2
*D16
 10
217.0051804689645
 20
224.1385404086629
 30
0.0000000000000000
 11
354.3829171481026
 21
164.6620631875415
 31
0.0000000000000000
 70
163
  3
MAIN001
100
AcDbDiametricDimension
 15
336.1312981867936
 25
172.0907923548044
 35
0.0000000000000000
1001
ACAD
1000
DSTYLE
1002
{
1070
   287
1070
     2
1070
   173
1070
     1
1070
     6
1000
_OPEN
1070
     7
1000
_OPEN
1070
    41
1040
2.000000
1070
   272
1070
     1
1070
    47
1040
0.200000
1070
    48
1040
0.200000
1070
    71
1070
     1
1002
}
  0
INSERT
  5
1A4
100
AcDbEntity
  8
MAIN0
  6
CONTINUOUS
 62
3
100
AcDbBlockReference
  2
D17
 10
0.0000000000000000
 20
0.0000000000000000
 30
0.0000000000000000
 50
0.0000000000000000
  0
ELLIPSE
  5
1A5
100
AcDbEntity
  8
MAIN0
  6
CONTINUOUS
 62
3
100
AcDbEllipse
 10
316.9544460073390
 20
221.4316536797219
 30
0.0000000000000000
 11
-1.499999999999995
 21
2.598076211353319
 31
0.0000000000000000
210
0.0000000000000000
220
0.0000000000000000
230
1.000000000000000
 40
0.8660000000000002
 41
0.0000000000000000
 42
6.283185307179586
  0
ELLIPSE
  5
1A6
100
AcDbEntity
  8
MAIN0
  6
CONTINUOUS
 62
3
100
AcDbEllipse
 10
317.4102173736388
 20
221.6947934007460
 30
0.0000000000000000
 11
-0.4999999999967693
 21
0.8660254037863039
 31
0.0000000000000000
210
0.0000000000000000
220
0.0000000000000000
230
1.000000000000000
 40
0.5000000000000000
 41
0.0000000000000000
 42
6.283185307179586
  0
ELLIPSE
  5
1A7
100
AcDbEntity
  8
MAIN0
  6
CONTINUOUS
 62
3
100
AcDbEllipse
 10
314.8121411621435
 20
220.1947934005921
 30
0.0000000000000000
 11
-1.499999999999995
 21
2.598076211353319
 31
0.0000000000000000
210
0.0000000000000000
220
0.0000000000000000
230
1.000000000000000
 40
0.8660000000000002
 41
2.728251516284667
 42
3.637786327915872
  0
ELLIPSE
  5
1A8
100
AcDbEntity
  8
MAIN0
  6
CONTINUOUS
 62
3
100
AcDbEllipse
 10
314.8121411621435
 20
220.1947934005921
 30
0.0000000000000000
 11
-1.499999999999995
 21
2.598076211353319
 31
0.0000000000000000
210
0.0000000000000000
220
0.0000000000000000
230
1.000000000000000
 40
0.8660000000000002
 41
5.786991632853524
 42
0.4133411373051184
  0
LINE
  5
1A9
100
AcDbEntity
  8
MAIN0
  6
CENTER
 62
3
100
AcDbLine
 10
316.5331442358715
 20
217.2139286369123
 30
0.0000000000000000
 11
313.0360644251850
 21
223.2710485471449
 31
0.0000000000000000
  0
LINE
  5
1AA
100
AcDbEntity
  8
MAIN0
  6
CONTINUOUS
 62
3
100
AcDbLine
 10
294.7547728073433
 20
210.3467171892973
 30
0.0000000000000000
 11
293.2547728073433
 21
209.4806917855129
 31
0.0000000000000000
  0
LINE
  5
1AB
100
AcDbEntity
  8
MAIN0
  6
CONTINUOUS
 62
3
100
AcDbLine
 10
296.2547728073433
 20
209.4806917855129
 30
0.0000000000000000
 11
294.7547728073433
 21
210.3467171892974
 31
0.0000000000000000
  0
LINE
  5
1AC
100
AcDbEntity
  8
MAIN0
  6
CONTINUOUS
 62
3
100
AcDbLine
 10
296.2547728073433
 20
207.7486409779440
 30
0.0000000000000000
 11
296.2547728073433
 21
209.4806917855129
 31
0.0000000000000000
  0
LINE
  5
1AD
100
AcDbEntity
  8
MAIN0
  6
CONTINUOUS
 62
3
100
AcDbLine
 10
293.2547728073433
 20
207.7486409779440
 30
0.0000000000000000
 11
294.7547728073433
 21
206.8826155741596
 31
0.0000000000000000
  0
LINE
  5
1AE
100
AcDbEntity
  8
MAIN0
  6
CONTINUOUS
 62
3
100
AcDbLine
 10
294.7547728073433
 20
206.8826155741596
 30
0.0000000000000000
 11
296.2547728073432
 21
207.7486409779440
 31
0.0000000000000000
  0
LINE
  5
1AF
100
AcDbEntity
  8
MAIN0
  6
CONTINUOUS
 62
3
100
AcDbLine
 10
293.2547728073433
 20
209.4806917855129
 30
0.0000000000000000
 11
293.2547728073433
 21
207.7486409779440
 31
0.0000000000000000
  0
CIRCLE
  5
1B0
100
AcDbEntity
  8
MAIN0
  6
CONTINUOUS
 62
3
100
AcDbCircle
 10
294.7547728073433
 20
208.6146663817284
 30
0.0000000000000000
 40
4.750000000000000
  0
LINE
  5
1B1
100
AcDbEntity
  8
MAIN0
  6
CONTINUOUS
 62
3
100
AcDbLine
 10
256.8817058484148
 20
207.7486409779441
 30
0.0000000000000000
 11
258.3817058484148
 21
206.8826155741597
 31
0.0000000000000000
  0
LINE
  5
1B2
100
AcDbEntity
  8
MAIN0
  6
CONTINUOUS
 62
3
100
AcDbLine
 10
256.8817058484147
 20
209.4806917855130
 30
0.0000000000000000
 11
256.8817058484147
 21
207.7486409779441
 31
0.0000000000000000
  0
LINE
  5
1B3
100
AcDbEntity
  8
MAIN0
  6
CONTINUOUS
 62
3
100
AcDbLine
 10
258.3817058484148
 20
210.3467171892974
 30
0.0000000000000000
 11
256.8817058484148
 21
209.4806917855129
 31
0.0000000000000000
  0
LINE
  5
1B4
100
AcDbEntity
  8
MAIN0
  6
CONTINUOUS
 62
3
100
AcDbLine
 10
259.8817058484147
 20
207.7486409779441
 30
0.0000000000000000
 11
259.8817058484147
 21
209.4806917855130
 31
0.0000000000000000
  0
LINE
  5
1B5
100
AcDbEntity
  8
MAIN0
  6
CONTINUOUS
 62
3
100
AcDbLine
 10
259.8817058484148
 20
209.4806917855130
 30
0.0000000000000000
 11
258.3817058484148
 21
210.3467171892974
 31
0.0000000000000000
  0
LINE
  5
1B6
100
AcDbEntity
  8
MAIN0
  6
CONTINUOUS
 62
3
100
AcDbLine
 10
258.3817058484148
 20
206.8826155741596
 30
0.0000000000000000
 11
259.8817058484148
 21
207.7486409779440
 31
0.0000000000000000
  0
CIRCLE
  5
1B7
100
AcDbEntity
  8
MAIN0
  6
CONTINUOUS
 62
3
100
AcDbCircle
 10
258.3817058484148
 20
208.6146663817285
 30
0.0000000000000000
 40
4.750000000000000
  0
DIMENSION
  5
1BE
100
AcDbEntity
  8
MAIN0
  6
CONTINUOUS
 62
3
100
AcDbDimension
  2
*D18
 10
257.8254505553633
 20
222.8069297253167
 30
0.0000000000000000
 11
267.9964546272171
 21
210.2343550742902
 31
0.0000000000000000
 70
163
  3
MAIN001
100
AcDbDiametricDimension
 15
295.3110281003948
 25
173.4224030381505
 35
0.0000000000000000
1001
ACAD
1000
DSTYLE
1002
{
1070
   287
1070
     2
1070
   173
1070
     1
1070
     6
1000
_OPEN
1070
     7
1000
_OPEN
1070
    41
1040
2.000000
1070
   272
1070
     1
1070
    47
1040
0.200000
1070
    48
1040
0.200000
1070
    71
1070
     1
1002
}
  0
LINE
  5
1BF
100
AcDbEntity
  8
MAIN0
  6
PHANTOM
 62
3
100
AcDbLine
 10
321.1921111322388
 20
228.8238531861424
 30
0.0000000000000000
 11
315.9196286287752
 21
225.5560607641592
 31
0.0000000000000000
  0
LINE
  5
1C0
100
AcDbEntity
  8
MAIN0
  6
PHANTOM
 62
3
100
AcDbLine
 10
315.6291286287752
 20
226.0592215237579
 30
0.0000000000000000
 11
320.9016111322387
 21
229.3270139457411
 31
0.0000000000000000
  0
LINE
  5
1C1
100
AcDbEntity
  8
MAIN0
  6
PHANTOM
 62
3
100
AcDbLine
 10
307.8651921259354
 20
220.9182427118615
 30
0.0000000000000000
 11
315.9142536287751
 21
225.5653705372498
 31
0.0000000000000000
  0
LINE
  5
1C2
100
AcDbEntity
  8
MAIN0
  6
PHANTOM
 62
3
100
AcDbLine
 10
320.2993786287751
 20
217.9701112397093
 30
0.0000000000000000
 11
315.6291286287752
 21
226.0592215237579
 31
0.0000000000000000
  0
LINE
  5
1C3
100
AcDbEntity
  8
MAIN0
  6
PHANTOM
 62
3
100
AcDbLine
 10
325.4751111322387
 20
221.4054795773248
 30
0.0000000000000000
 11
320.0088786287752
 21
218.4732719993081
 31
0.0000000000000000
  0
LINE
  5
1C4
100
AcDbEntity
  8
MAIN0
  6
PHANTOM
 62
3
100
AcDbLine
 10
325.7656111322388
 20
220.9023188177261
 30
0.0000000000000000
 11
320.2993786287752
 21
217.9701112397093
 31
0.0000000000000000
  0
LINE
  5
1C5
100
AcDbEntity
  8
MAIN0
  6
PHANTOM
 62
3
100
AcDbLine
 10
320.0142536287751
 20
218.4639622262174
 30
0.0000000000000000
 11
311.4630559944588
 21
213.5269259701512
 31
0.0000000000000000
  0
LINE
  5
1C6
100
AcDbEntity
  8
MAIN0
  6
PHANTOM
 62
3
100
AcDbLine
 10
327.0836111322387
 20
218.6194758533503
 30
0.0000000000000000
 11
319.5836111322387
 21
231.6098569101170
 31
0.0000000000000000
  0
LINE
  5
1C7
100
AcDbEntity
  8
MAIN0
  6
PHANTOM
 62
3
100
AcDbLine
 10
327.5047045483212
 20
218.8625942504795
 30
0.0000000000000000
 11
327.0836111322386
 21
218.6194758533503
 31
0.0000000000000000
  0
LINE
  5
1C8
100
AcDbEntity
  8
MAIN0
  6
PHANTOM
 62
3
100
AcDbLine
 10
320.0047045483212
 20
231.8529753072461
 30
0.0000000000000000
 11
319.5836111322387
 21
231.6098569101170
 31
0.0000000000000000
  0
DIMENSION
  5
1D3
100
AcDbEntity
  8
MAIN0
  6
CONTINUOUS
 62
3
100
AcDbDimension
  2
*D19
 10
176.5682393278790
 20
199.6146663817331
 30
0.0000000000000000
 11
176.0682393278790
 21
188.1146663817336
 31
0.0000000000000000
 70
160
  1
\A1;MAX 2.25
  3
MAIN001
100
AcDbAlignedDimension
 13
159.2496894108191
 23
198.1146663817336
 33
0.0000000000000000
 14
148.5682393278790
 24
199.6146663817331
 34
0.0000000000000000
 50
90.00000000000000
100
AcDbRotatedDimension
1001
ACAD
1000
DSTYLE
1002
{
1070
   173
1070
     1
1070
     6
1000
_OPEN
1070
     7
1000
_OPEN
1070
    41
1040
2.000000
1070
   287
1070
     0
1002
}
  0
LINE
  5
1D4
100
AcDbEntity
  8
MAIN0
  6
CONTINUOUS
 62
3
100
AcDbLine
 10
277.0682393281868
 20
199.6146663817257
 30
0.0000000000000000
 11
286.5682393278790
 21
205.0994939388519
 31
0.0000000000000000
  0
LINE
  5
1D5
100
AcDbEntity
  8
MAIN0
  6
CONTINUOUS
 62
3
100
AcDbLine
 10
266.5682393278790
 20
205.0994939389232
 30
0.0000000000000000
 11
276.0682393276908
 21
199.6146663817257
 31
0.0000000000000000
  0
DIMENSION
  5
1E0
100
AcDbEntity
  8
MAIN0
  6
CONTINUOUS
 62
3
100
AcDbDimension
  2
*D20
 10
276.0682393276908
 20
208.5806870400456
 30
0.0000000000000000
 11
279.5939759804545
 21
209.0806870400456
 31
0.0000000000000000
 70
160
  3
MAIN001
100
AcDbAlignedDimension
 13
277.0682393281868
 23
199.6146663817257
 33
0.0000000000000000
 14
276.0682393276908
 24
199.6146663817257
 34
0.0000000000000000
100
AcDbRotatedDimension
1001
ACAD
1000
DSTYLE
1002
{
1070
   173
1070
     1
1070
     6
1000
_OPEN
1070
     7
1000
_OPEN
1070
    41
1040
2.000000
1070
   287
1070
     0
1002
}
  0
LINE
  5
1E1
100
AcDbEntity
  8
MAIN0
  6
CONTINUOUS
 62
3
100
AcDbLine
 10
275.5192012223034
 20
196.9316536796823
 30
0.0000000000000000
 11
275.0192012220554
 21
197.7976790838964
 31
0.0000000000000000
  0
LINE
  5
1E2
100
AcDbEntity
  8
MAIN0
  6
CONTINUOUS
 62
3
100
AcDbLine
 10
275.0192012220554
 20
197.7976790838963
 30
0.0000000000000000
 11
265.5192012223611
 21
203.2825066410188
 31
0.0000000000000000
  0
LINE
  5
1E3
100
AcDbEntity
  8
MAIN0
  6
CONTINUOUS
 62
3
100
AcDbLine
 10
275.5192012222992
 20
185.9619985652944
 30
0.0000000000000000
 11
275.5192012223034
 21
196.9316536796823
 31
0.0000000000000000
  0
LINE
  5
1E4
100
AcDbEntity
  8
MAIN0
  6
CONTINUOUS
 62
3
100
AcDbLine
 10
278.1172774336429
 20
197.7976790837929
 30
0.0000000000000000
 11
277.6172774333949
 21
196.9316536795789
 31
0.0000000000000000
  0
LINE
  5
1E5
100
AcDbEntity
  8
MAIN0
  6
CONTINUOUS
 62
3
100
AcDbLine
 10
277.6172774333949
 20
196.9316536795789
 30
0.0000000000000000
 11
277.6172774333971
 21
185.9619985653302
 31
0.0000000000000000
  0
LINE
  5
1E6
100
AcDbEntity
  8
MAIN0
  6
CONTINUOUS
 62
3
100
AcDbLine
 10
281.2655926368203
 20
199.6153597138396
 30
0.0000000000000000
 11
278.1172774336429
 21
197.7976790837929
 31
0.0000000000000000
  0
MTEXT
  5
1E7
100
AcDbEntity
  8
MAIN0
  6
CONTINUOUS
 62
4
100
AcDbMText
 10
270.1238010478228
 20
147.8749099509664
 30
0.0000000000000000
 40
3.000000000000000
 41
0.0000000000000000
 71
     1
 72
     1
  1
{\H0.92x;{JAPAN}}
 11
1.000000000000000
 21
0.0000000000000000
 31
0.0000000000000000
  7
STANDARD
  0
LINE
  5
1E8
100
AcDbEntity
  8
MAIN0
  6
CONTINUOUS
 62
3
100
AcDbLine
 10
129.0682393278793
 20
38.85009808882799
 30
0.0000000000000000
 11
235.0682393278793
 21
38.85009808882799
 31
0.0000000000000000
  0
MTEXT
  5
1E9
100
AcDbEntity
  8
MAIN0
  6
CONTINUOUS
 62
4
100
AcDbMText
 10
205.1609573947617
 20
47.35800513764283
 30
0.0000000000000000
 40
3.099999904632568
 41
0.0000000000000000
 71
     1
 72
     1
  1
{\H0.92x;{0.22　N}}
 11
1.000000000000000
 21
0.0000000000000000
 31
0.0000000000000000
  7
KNJYOKO
  0
SPLINE
  5
1EA
100
AcDbEntity
  8
MAIN0
  6
CONTINUOUS
 62
3
100
AcDbSpline
210
0.0000000000000000
220
0.0000000000000000
230
1.000000000000000
 70
     8
 71
     3
 72
    14
 73
    10
 74
     0
 42
1.000000000000000e-007
 43
1.000000000000000e-007
 12
1.205313937519577
 22
0.3012197250379813
 32
0.0000000000000000
 13
0.9118704780839835
 23
0.7328372388452067
 33
0.0000000000000000
 40
0.0000000000000000
 40
0.0000000000000000
 40
0.0000000000000000
 40
0.0000000000000000
 40
0.5828484074954654
 40
2.017389827489209
 40
3.123506893394179
 40
4.885508420049012
 40
6.048697447303496
 40
6.384151807376483
 40
6.831490023551860
 40
6.831490023551860
 40
6.831490023551860
 40
6.831490023551860
 10
222.9219273874602
 20
44.54228545189298
 30
0.0000000000000000
 10
223.1560991571320
 20
44.60080726424118
 30
0.0000000000000000
 10
223.9666285159592
 20
44.80336646728526
 30
0.0000000000000000
 10
224.4983551564221
 20
45.96300776858820
 30
0.0000000000000000
 10
224.6371622837476
 20
48.47118725571582
 30
0.0000000000000000
 10
223.3889167278148
 20
46.04503878530247
 30
0.0000000000000000
 10
223.2979091931159
 20
44.14044684681616
 30
0.0000000000000000
 10
224.1515417424297
 20
44.43531859522054
 30
0.0000000000000000
 10
224.3894768893442
 20
44.62653844527628
 30
0.0000000000000000
 10
224.5254483936938
 20
44.73581381300025
 30
0.0000000000000000
  0
MTEXT
  5
1EB
100
AcDbEntity
  8
MAIN0
  6
CONTINUOUS
 62
3
100
AcDbMText
 10
174.9396800238492
 20
121.1656871339420
 30
0.0000000000000000
 40
3.100000381469727
 41
0.0000000000000000
 71
     1
 72
     1
  1
{\H0.93x;{仕　　　様}}
 11
1.000000000000000
 21
0.0000000000000000
 31
0.0000000000000000
  7
KNJYOKO
  0
MTEXT
  5
1EC
100
AcDbEntity
  8
MAIN0
  6
CONTINUOUS
 62
3
100
AcDbMText
 10
165.1364869348257
 20
125.2102226414103
 30
0.0000000000000000
 40
3.100000381469727
 41
0.0000000000000000
 71
     1
 72
     1
  1
{\H0.94x;{SPECIFICATIONS}}
 11
1.000000000000000
 21
0.0000000000000000
 31
0.0000000000000000
  7
STANDARD
  0
MTEXT
  5
1ED
100
AcDbEntity
  8
MAIN0
  6
CONTINUOUS
 62
3
100
AcDbMText
 10
132.2737158575669
 20
106.1133925485166
 30
0.0000000000000000
 40
2.399999618530273
 41
0.0000000000000000
 71
     1
 72
     1
  1
{\H0.94x;{ジョーストローク(直径で)}}
 11
1.000000000000000
 21
0.0000000000000000
 31
0.0000000000000000
  7
KNJYOKO
  0
MTEXT
  5
1EE
100
AcDbEntity
  8
MAIN0
  6
CONTINUOUS
 62
3
100
AcDbMText
 10
132.2737158575669
 20
109.2133919763120
 30
0.0000000000000000
 40
2.499999046325684
 41
0.0000000000000000
 71
     1
 72
     1
  1
{\H0.75x;{JAW STROKE (IN DIA)}}
 11
1.000000000000000
 21
0.0000000000000000
 31
0.0000000000000000
  7
STANDARD
  0
MTEXT
  5
1EF
100
AcDbEntity
  8
MAIN0
  6
CONTINUOUS
 62
3
100
AcDbMText
 10
132.2737158575669
 20
113.1133925485166
 30
0.0000000000000000
 40
2.399999618530273
 41
0.0000000000000000
 71
     1
 72
     1
  1
{\H0.93x;{プランジャストロ－ク}}
 11
1.000000000000000
 21
0.0000000000000000
 31
0.0000000000000000
  7
KNJYOKO
  0
MTEXT
  5
1F0
100
AcDbEntity
  8
MAIN0
  6
CONTINUOUS
 62
3
100
AcDbMText
 10
132.2737158575669
 20
116.2133919763120
 30
0.0000000000000000
 40
2.499999046325684
 41
0.0000000000000000
 71
     1
 72
     1
  1
{\H0.75x;{PLUNGER STROKE}}
 11
1.000000000000000
 21
0.0000000000000000
 31
0.0000000000000000
  7
STANDARD
  0
MTEXT
  5
1F1
100
AcDbEntity
  8
MAIN0
  6
CONTINUOUS
 62
3
100
AcDbMText
 10
132.2737158575669
 20
48.85005959665332
 30
0.0000000000000000
 40
2.000000000000000
 41
0.0000000000000000
 71
     1
 72
     1
  1
{\H0.62x;{STROKE ON PRESSURE OF 0.6MPa)}}
 11
1.000000000000000
 21
0.0000000000000000
 31
0.0000000000000000
  7
STANDARD
  0
MTEXT
  5
1F2
100
AcDbEntity
  8
MAIN0
  6
CONTINUOUS
 62
3
100
AcDbMText
 10
132.2737158575669
 20
51.85005959665332
 30
0.0000000000000000
 40
2.000000000000000
 41
0.0000000000000000
 71
     1
 72
     1
  1
{\H0.63x;{AIR CONSUMPTION (PER 5mm OF PLUNGER }}
 11
1.000000000000000
 21
0.0000000000000000
 31
0.0000000000000000
  7
STANDARD
  0
MTEXT
  5
1F3
100
AcDbEntity
  8
MAIN0
  6
CONTINUOUS
 62
3
100
AcDbMText
 10
132.2737158575672
 20
45.25005921518360
 30
0.0000000000000000
 40
2.399999618530273
 41
0.0000000000000000
 71
     1
 72
     1
  1
{\H0.92x;{空気消費量}}
 11
1.000000000000000
 21
0.0000000000000000
 31
0.0000000000000000
  7
KNJYOKO
  0
MTEXT
  5
1F4
100
AcDbEntity
  8
MAIN0
  6
CONTINUOUS
 62
3
100
AcDbMText
 10
132.2737158575669
 20
42.35005959665332
 30
0.0000000000000000
 40
2.500000000000000
 41
0.0000000000000000
 71
     1
 72
     1
  1
{\H0.59x;{(プランジャストローク5mm当り圧力0.6MPa時)}}
 11
1.000000000000000
 21
0.0000000000000000
 31
0.0000000000000000
  7
KNJYOKO
  0
MTEXT
  5
1F5
100
AcDbEntity
  8
MAIN0
  6
CONTINUOUS
 62
3
100
AcDbMText
 10
132.2737158575669
 20
38.21339197631201
 30
0.0000000000000000
 40
2.499999046325684
 41
0.0000000000000000
 71
     1
 72
     1
  1
{\H0.75x;{GRIPPING RANGE}}
 11
1.000000000000000
 21
0.0000000000000000
 31
0.0000000000000000
  7
STANDARD
  0
MTEXT
  5
1F6
100
AcDbEntity
  8
MAIN0
  6
CONTINUOUS
 62
3
100
AcDbMText
 10
132.2737158575669
 20
35.11339254851660
 30
0.0000000000000000
 40
2.399999618530273
 41
0.0000000000000000
 71
     1
 72
     1
  1
{\H0.92x;{把握範囲}}
 11
1.000000000000000
 21
0.0000000000000000
 31
0.0000000000000000
  7
KNJYOKO
  0
MTEXT
  5
1F7
100
AcDbEntity
  8
MAIN0
  6
CONTINUOUS
 62
3
100
AcDbMText
 10
132.2737158575669
 20
31.35014123273291
 30
0.0000000000000000
 40
2.499999046325684
 41
0.0000000000000000
 71
     1
 72
     1
  1
{\H0.73x;{MASS}}
 11
1.000000000000000
 21
0.0000000000000000
 31
0.0000000000000000
  7
STANDARD
  0
MTEXT
  5
1F8
100
AcDbEntity
  8
MAIN0
  6
CONTINUOUS
 62
3
100
AcDbMText
 10
132.2737158575669
 20
28.25014180493750
 30
0.0000000000000000
 40
2.399999618530273
 41
0.0000000000000000
 71
     1
 72
     1
  1
{\H0.94x;{質量 (標準ソフトジョー付)}}
 11
1.000000000000000
 21
0.0000000000000000
 31
0.0000000000000000
  7
KNJYOKO
  0
MTEXT
  5
1F9
100
AcDbEntity
  8
MAIN0
  6
CONTINUOUS
 62
3
100
AcDbMText
 10
142.2737158575669
 20
30.85014218640723
 30
0.0000000000000000
 40
2.000000000000000
 41
0.0000000000000000
 71
     1
 72
     1
  1
{\H0.63x;{(INCLUDE STANDARD SOFT JAW)}}
 11
1.000000000000000
 21
0.0000000000000000
 31
0.0000000000000000
  7
STANDARD
  0
MTEXT
  5
1FA
100
AcDbEntity
  8
MAIN0
  6
CONTINUOUS
 62
3
100
AcDbMText
 10
132.2737158575669
 20
60.21339292998633
 30
0.0000000000000000
 40
2.500000000000000
 41
0.0000000000000000
 71
     1
 72
     1
  1
{\H0.63x;{MIN PERMISSIBLE PRESS}}
 11
1.000000000000000
 21
0.0000000000000000
 31
0.0000000000000000
  7
STANDARD
  0
MTEXT
  5
1FB
100
AcDbEntity
  8
MAIN0
  6
CONTINUOUS
 62
3
100
AcDbMText
 10
132.2737158575669
 20
57.11339254851660
 30
0.0000000000000000
 40
2.399999618530273
 41
0.0000000000000000
 71
     1
 72
     1
  1
{\H0.93x;{最低使用圧力}}
 11
1.000000000000000
 21
0.0000000000000000
 31
0.0000000000000000
  7
KNJYOKO
  0
MTEXT
  5
1FC
100
AcDbEntity
  8
MAIN0
  6
CONTINUOUS
 62
3
100
AcDbMText
 10
132.2737158575669
 20
72.71559886417276
 30
0.0000000000000000
 40
2.500000000000000
 41
0.0000000000000000
 71
     1
 72
     1
  1
{\H0.63x;{MAX PERMISSIBLE\PPRESS}}
 11
1.000000000000000
 21
0.0000000000000000
 31
0.0000000000000000
  7
STANDARD
  0
MTEXT
  5
1FD
100
AcDbEntity
  8
MAIN0
  6
CONTINUOUS
 62
3
100
AcDbMText
 10
132.2737158575669
 20
65.61559848270304
 30
0.0000000000000000
 40
2.399999618530273
 41
0.0000000000000000
 71
     1
 72
     1
  1
{\H0.93x;{最高使用圧力}}
 11
1.000000000000000
 21
0.0000000000000000
 31
0.0000000000000000
  7
KNJYOKO
  0
MTEXT
  5
1FE
100
AcDbEntity
  8
MAIN0
  6
CONTINUOUS
 62
3
100
AcDbMText
 10
158.0682393278793
 20
74.05009713515361
 30
0.0000000000000000
 40
2.499999046325684
 41
0.0000000000000000
 71
     1
 72
     1
  1
{\H0.74x;{AIR PRESSURE}}
 11
1.000000000000000
 21
0.0000000000000000
 31
0.0000000000000000
  7
STANDARD
  0
MTEXT
  5
1FF
100
AcDbEntity
  8
MAIN0
  6
CONTINUOUS
 62
3
100
AcDbMText
 10
158.0682393278793
 20
67.05009713515361
 30
0.0000000000000000
 40
2.499999046325684
 41
0.0000000000000000
 71
     1
 72
     1
  1
{\H0.74x;{OIL PRESSURE}}
 11
1.000000000000000
 21
0.0000000000000000
 31
0.0000000000000000
  7
STANDARD
  0
MTEXT
  5
200
100
AcDbEntity
  8
MAIN0
  6
CONTINUOUS
 62
3
100
AcDbMText
 10
208.2737158575669
 20
102.2133919763120
 30
0.0000000000000000
 40
2.499999046325684
 41
0.0000000000000000
 71
     1
 72
     1
  1
{\H0.74x;{SOFT JAW}}
 11
1.000000000000000
 21
0.0000000000000000
 31
0.0000000000000000
  7
STANDARD
  0
MTEXT
  5
201
100
AcDbEntity
  8
MAIN0
  6
CONTINUOUS
 62
3
100
AcDbMText
 10
208.2737158575669
 20
85.11339254851660
 30
0.0000000000000000
 40
2.399999618530273
 41
0.0000000000000000
 71
     1
 72
     1
  1
{\H0.93x;{ソフトジョー使用時}}
 11
1.000000000000000
 21
0.0000000000000000
 31
0.0000000000000000
  7
KNJYOKO
  0
MTEXT
  5
202
100
AcDbEntity
  8
MAIN0
  6
CONTINUOUS
 62
3
100
AcDbMText
 10
208.2737158575669
 20
88.21339197631201
 30
0.0000000000000000
 40
2.499999046325684
 41
0.0000000000000000
 71
     1
 72
     1
  1
{\H0.74x;{SOFT JAW}}
 11
1.000000000000000
 21
0.0000000000000000
 31
0.0000000000000000
  7
STANDARD
  0
MTEXT
  5
203
100
AcDbEntity
  8
MAIN0
  6
CONTINUOUS
 62
3
100
AcDbMText
 10
208.2737158575669
 20
92.11339254851660
 30
0.0000000000000000
 40
2.399999618530273
 41
0.0000000000000000
 71
     1
 72
     1
  1
{\H0.93x;{焼入れジョー使用時}}
 11
1.000000000000000
 21
0.0000000000000000
 31
0.0000000000000000
  7
KNJYOKO
  0
MTEXT
  5
204
100
AcDbEntity
  8
MAIN0
  6
CONTINUOUS
 62
3
100
AcDbMText
 10
208.2737158575669
 20
95.21339197631201
 30
0.0000000000000000
 40
2.499999046325684
 41
0.0000000000000000
 71
     1
 72
     1
  1
{\H0.74x;{HARD JAW}}
 11
1.000000000000000
 21
0.0000000000000000
 31
0.0000000000000000
  7
STANDARD
  0
MTEXT
  5
205
100
AcDbEntity
  8
MAIN0
  6
CONTINUOUS
 62
3
100
AcDbMText
 10
208.2737158575669
 20
78.11339254851660
 30
0.0000000000000000
 40
2.399999618530273
 41
0.0000000000000000
 71
     1
 72
     1
  1
{\H0.93x;{焼入れジョー使用時}}
 11
1.000000000000000
 21
0.0000000000000000
 31
0.0000000000000000
  7
KNJYOKO
  0
MTEXT
  5
206
100
AcDbEntity
  8
MAIN0
  6
CONTINUOUS
 62
3
100
AcDbMText
 10
208.2737158575669
 20
81.21339197631201
 30
0.0000000000000000
 40
2.499999046325684
 41
0.0000000000000000
 71
     1
 72
     1
  1
{\H0.74x;{HARD JAW}}
 11
1.000000000000000
 21
0.0000000000000000
 31
0.0000000000000000
  7
STANDARD
  0
MTEXT
  5
207
100
AcDbEntity
  8
MAIN0
  6
CONTINUOUS
 62
3
100
AcDbMText
 10
152.0682393278793
 20
102.0500971351536
 30
0.0000000000000000
 40
2.499999046325684
 41
0.0000000000000000
 71
     1
 72
     1
  1
{\H0.74x;{AIR PRESSURE}}
 11
1.000000000000000
 21
0.0000000000000000
 31
0.0000000000000000
  7
STANDARD
  0
MTEXT
  5
208
100
AcDbEntity
  8
MAIN0
  6
CONTINUOUS
 62
3
100
AcDbMText
 10
152.0682393278793
 20
88.05009713515361
 30
0.0000000000000000
 40
2.499999046325684
 41
0.0000000000000000
 71
     1
 72
     1
  1
{\H0.74x;{OIL PRESSURE}}
 11
1.000000000000000
 21
0.0000000000000000
 31
0.0000000000000000
  7
STANDARD
  0
MTEXT
  5
209
100
AcDbEntity
  8
MAIN0
  6
CONTINUOUS
 62
3
100
AcDbMText
 10
131.0682393278793
 20
94.85009713515368
 30
0.0000000000000000
 40
2.499999046325684
 41
0.0000000000000000
 71
     1
 72
     1
  1
{\H0.74x;{GRIPPING\PFORCE}}
 11
1.000000000000000
 21
0.0000000000000000
 31
0.0000000000000000
  7
STANDARD
  0
INSERT
  5
216
100
AcDbEntity
  8
MAIN0
  6
CONTINUOUS
 62
3
100
AcDbBlockReference
  2
M0
 10
0.0000000000000000
 20
0.0000000000000000
 30
0.0000000000000000
 50
0.0000000000000000
  0
INSERT
  5
223
100
AcDbEntity
  8
MAIN0
  6
CONTINUOUS
 62
3
100
AcDbBlockReference
  2
M1
 10
0.0000000000000000
 20
0.0000000000000000
 30
0.0000000000000000
 50
0.0000000000000000
  0
MTEXT
  5
224
100
AcDbEntity
  8
MAIN0
  6
CONTINUOUS
 62
3
100
AcDbMText
 10
251.0682393278793
 20
70.11051841569682
 30
0.0000000000000000
 40
3.099999904632568
 41
0.0000000000000000
 71
     1
 72
     1
  1
{\H0.70x;{チャックへの給油は北川が指定するグリス}}
 11
1.000000000000000
 21
0.0000000000000000
 31
0.0000000000000000
  7
KNJYOKO
  0
MTEXT
  5
225
100
AcDbEntity
  8
MAIN0
  6
CONTINUOUS
 62
3
100
AcDbMText
 10
322.6812496074205
 20
64.51051851106425
 30
0.0000000000000000
 40
2.500000000000000
 41
0.0000000000000000
 71
     1
 72
     1
  1
{\H0.62x;{GREASE SPECIIFIED BY KITAGAWA.}}
 11
1.000000000000000
 21
0.0000000000000000
 31
0.0000000000000000
  7
STANDARD
  0
MTEXT
  5
226
100
AcDbEntity
  8
MAIN0
  6
CONTINUOUS
 62
3
100
AcDbMText
 10
251.0682393278793
 20
65.11051841569682
 30
0.0000000000000000
 40
3.099999904632568
 41
0.0000000000000000
 71
     1
 72
     1
  1
{\H0.70x;{を使用して下さい。}}
 11
1.000000000000000
 21
0.0000000000000000
 31
0.0000000000000000
  7
KNJYOKO
  0
MTEXT
  5
227
100
AcDbEntity
  8
MAIN0
  6
CONTINUOUS
 62
3
100
AcDbMText
 10
322.6812496074205
 20
69.51051851106419
 30
0.0000000000000000
 40
2.500000000000000
 41
0.0000000000000000
 71
     1
 72
     1
  1
{\H0.63x;{LUBRICATE THE CHUCK WITH GREASE GUN USING LUBRICATION}}
 11
1.000000000000000
 21
0.0000000000000000
 31
0.0000000000000000
  7
STANDARD
  0
MTEXT
  5
228
100
AcDbEntity
  8
MAIN0
  6
CONTINUOUS
 62
3
100
AcDbMText
 10
322.6812496074205
 20
59.51051851106431
 30
0.0000000000000000
 40
2.500000000000000
 41
0.0000000000000000
 71
     1
 72
     1
  1
{\H0.62x;{PREPARE THE SPECIAL LOCATOR.}}
 11
1.000000000000000
 21
0.0000000000000000
 31
0.0000000000000000
  7
STANDARD
  0
MTEXT
  5
229
100
AcDbEntity
  8
MAIN0
  6
CONTINUOUS
 62
3
100
AcDbMText
 10
70.43835064930097
 20
180.9344271191118
 30
0.0000000000000000
 40
2.799999952316284
 41
0.0000000000000000
 71
     1
 72
     1
  1
{\H0.67x;{POSSIBLE DEPTH\PFOR TAPPING\POR BORING}}
 11
1.000000000000000
 21
0.0000000000000000
 31
0.0000000000000000
  7
STANDARD
  0
MTEXT
  5
22A
100
AcDbEntity
  8
MAIN0
  6
CONTINUOUS
 62
3
100
AcDbMText
 10
218.8899281436595
 20
58.48404665105821
 30
0.0000000000000000
 40
2.000000000000000
 41
0.0000000000000000
 71
     1
 72
     1
  1
{\H0.82x;{2}}
 11
1.000000000000000
 21
0.0000000000000000
 31
0.0000000000000000
  7
STANDARD
  0
LINE
  5
22B
100
AcDbEntity
  8
MAIN0
  6
CONTINUOUS
 62
3
100
AcDbLine
 10
105.7682393278789
 20
252.8646663817336
 30
0.0000000000000000
 11
106.5924825537154
 21
252.5646663817336
 31
0.0000000000000000
  0
LINE
  5
22C
100
AcDbEntity
  8
MAIN0
  6
CONTINUOUS
 62
3
100
AcDbLine
 10
106.5924825537155
 20
252.5646663817336
 30
0.0000000000000000
 11
108.4182393278789
 21
252.5646663817336
 31
0.0000000000000000
  0
LINE
  5
22D
100
AcDbEntity
  8
MAIN0
  6
CONTINUOUS
 62
3
100
AcDbLine
 10
108.4182393278789
 20
252.5646663817335
 30
0.0000000000000000
 11
109.0182393278790
 21
253.1646663817336
 31
0.0000000000000000
  0
LINE
  5
22E
100
AcDbEntity
  8
MAIN0
  6
CONTINUOUS
 62
3
100
AcDbLine
 10
119.1182393278789
 20
252.5646663817336
 30
0.0000000000000000
 11
120.9439961020426
 21
252.5646663817336
 31
0.0000000000000000
  0
LINE
  5
22F
100
AcDbEntity
  8
MAIN0
  6
CONTINUOUS
 62
3
100
AcDbLine
 10
121.7682393278789
 20
252.8646663817336
 30
0.0000000000000000
 11
120.9439961020425
 21
252.5646663817336
 31
0.0000000000000000
  0
LINE
  5
230
100
AcDbEntity
  8
MAIN0
  6
CONTINUOUS
 62
3
100
AcDbLine
 10
119.1182393278789
 20
252.5646663817336
 30
0.0000000000000000
 11
118.5182393278789
 21
253.1646663817336
 31
0.0000000000000000
  0
LINE
  5
231
100
AcDbEntity
  8
MAIN0
  6
CONTINUOUS
 62
3
100
AcDbLine
 10
105.7682393278789
 20
143.3646663817336
 30
0.0000000000000000
 11
106.5924825537154
 21
143.6646663817336
 31
0.0000000000000000
  0
LINE
  5
232
100
AcDbEntity
  8
MAIN0
  6
CONTINUOUS
 62
3
100
AcDbLine
 10
106.5924825537155
 20
143.6646663817337
 30
0.0000000000000000
 11
108.4182393278789
 21
143.6646663817337
 31
0.0000000000000000
  0
LINE
  5
233
100
AcDbEntity
  8
MAIN0
  6
CONTINUOUS
 62
3
100
AcDbLine
 10
108.4182393278789
 20
143.6646663817338
 30
0.0000000000000000
 11
109.0182393278790
 21
143.0646663817337
 31
0.0000000000000000
  0
LINE
  5
234
100
AcDbEntity
  8
MAIN0
  6
PHANTOM
 62
3
100
AcDbLine
 10
119.1182393278789
 20
143.6646663817337
 30
0.0000000000000000
 11
120.9439961020426
 21
143.6646663817337
 31
0.0000000000000000
  0
LINE
  5
235
100
AcDbEntity
  8
MAIN0
  6
PHANTOM
 62
3
100
AcDbLine
 10
121.7682393278789
 20
143.3646663817337
 30
0.0000000000000000
 11
120.9439961020425
 21
143.6646663817337
 31
0.0000000000000000
  0
LINE
  5
236
100
AcDbEntity
  8
MAIN0
  6
PHANTOM
 62
3
100
AcDbLine
 10
119.1182393278789
 20
143.6646663817337
 30
0.0000000000000000
 11
118.5182393278789
 21
143.0646663817337
 31
0.0000000000000000
  0
LINE
  5
237
100
AcDbEntity
  8
MAIN0
  6
CONTINUOUS
 62
3
100
AcDbLine
 10
121.7682393278791
 20
239.4223220624695
 30
0.0000000000000000
 11
121.7682393278792
 21
252.8646663817336
 31
0.0000000000000000
  0
LINE
  5
238
100
AcDbEntity
  8
MAIN0
  6
CONTINUOUS
 62
3
100
AcDbLine
 10
109.0182393278907
 20
211.7463073624155
 30
0.0000000000000000
 11
109.0182393278907
 21
253.1646663817336
 31
0.0000000000000000
  0
LINE
  5
239
100
AcDbEntity
  8
MAIN0
  6
CONTINUOUS
 62
3
100
AcDbLine
 10
105.7682393278635
 20
211.3276095443474
 30
0.0000000000000000
 11
105.7682393278697
 21
252.8646663817336
 31
0.0000000000000000
  0
LINE
  5
23A
100
AcDbEntity
  8
MAIN0
  6
CONTINUOUS
 62
3
100
AcDbLine
 10
106.5924825537090
 20
211.3917189089937
 30
0.0000000000000000
 11
106.5924825537130
 21
252.5646663817336
 31
0.0000000000000000
  0
LINE
  5
23B
100
AcDbEntity
  8
MAIN0
  6
CONTINUOUS
 62
3
100
AcDbLine
 10
108.4182393278765
 20
211.6134198858419
 30
0.0000000000000000
 11
108.4182393278805
 21
252.5646663817336
 31
0.0000000000000000
  0
LINE
  5
23C
100
AcDbEntity
  8
MAIN0
  6
CONTINUOUS
 62
3
100
AcDbLine
 10
118.5182393278723
 20
217.7551876060195
 30
0.0000000000000000
 11
118.5182393278728
 21
229.2743511929094
 31
0.0000000000000000
  0
LINE
  5
23D
100
AcDbEntity
  8
MAIN0
  6
CONTINUOUS
 62
3
100
AcDbLine
 10
118.5182393278731
 20
234.2803500802069
 30
0.0000000000000000
 11
118.5182393278740
 21
253.1646663817336
 31
0.0000000000000000
  0
LINE
  5
23E
100
AcDbEntity
  8
MAIN0
  6
CONTINUOUS
 62
3
100
AcDbLine
 10
119.1182393278858
 20
218.0487009913220
 30
0.0000000000000000
 11
119.1182393278853
 21
228.1083378488108
 31
0.0000000000000000
  0
LINE
  5
23F
100
AcDbEntity
  8
MAIN0
  6
CONTINUOUS
 62
3
100
AcDbLine
 10
119.1182393278850
 20
235.7993756583913
 30
0.0000000000000000
 11
119.1182393278841
 21
252.5646663817336
 31
0.0000000000000000
  0
LINE
  5
240
100
AcDbEntity
  8
MAIN0
  6
CONTINUOUS
 62
3
100
AcDbLine
 10
120.9439961020479
 20
219.5825186585673
 30
0.0000000000000000
 11
120.9439961020475
 21
225.2375088585645
 31
0.0000000000000000
  0
LINE
  5
241
100
AcDbEntity
  8
MAIN0
  6
CONTINUOUS
 62
3
100
AcDbLine
 10
120.9439961020465
 20
238.5114851565411
 30
0.0000000000000000
 11
120.9439961020455
 21
252.5646663817336
 31
0.0000000000000000
  0
LINE
  5
242
100
AcDbEntity
  8
MAIN0
  6
CONTINUOUS
 62
3
100
AcDbLine
 10
109.0182393278907
 20
184.7339524298951
 30
0.0000000000000000
 11
109.0182393278907
 21
169.6508816184315
 31
0.0000000000000000
  0
LINE
  5
243
100
AcDbEntity
  8
MAIN0
  6
CONTINUOUS
 62
3
100
AcDbLine
 10
105.7682393278635
 20
185.3385803613385
 30
0.0000000000000000
 11
105.7682393278662
 21
167.0296243129617
 31
0.0000000000000000
  0
LINE
  5
244
100
AcDbEntity
  8
MAIN0
  6
CONTINUOUS
 62
3
100
AcDbLine
 10
106.5924825537089
 20
185.2152080285560
 30
0.0000000000000000
 11
106.5924825537106
 21
167.6563680287663
 31
0.0000000000000000
  0
LINE
  5
245
100
AcDbEntity
  8
MAIN0
  6
CONTINUOUS
 62
3
100
AcDbLine
 10
108.4182393278765
 20
184.8737364597137
 30
0.0000000000000000
 11
108.4182393278780
 21
169.1197115953831
 31
0.0000000000000000
  0
MTEXT
  5
246
100
AcDbEntity
  8
MAIN0
  6
CONTINUOUS
 62
3
100
AcDbMText
 10
144.5682393278790
 20
164.1646670493057
 30
0.0000000000000000
 40
4.000000000000000
 41
0.0000000000000000
 71
     1
 72
     1
  1
{\H0.59x;{ロケータ取付可能面範囲}}
 11
6.123233995736766e-017
 21
1.000000000000000
 31
0.0000000000000000
  7
KNJYOKO
  0
MTEXT
  5
247
100
AcDbEntity
  8
MAIN0
  6
CONTINUOUS
 62
3
100
AcDbMText
 10
149.5682393278790
 20
164.1646670493057
 30
0.0000000000000000
 40
2.799999952316284
 41
0.0000000000000000
 71
     1
 72
     1
  1
{\H0.67x;{LOCATOR ATTACHABLE\PSURFACE AREA}}
 11
6.123233995736766e-017
 21
1.000000000000000
 31
0.0000000000000000
  7
STANDARD
  0
MTEXT
  5
248
100
AcDbEntity
  8
MAIN0
  6
CONTINUOUS
 62
3
100
AcDbMText
 10
177.0682393278790
 20
180.2646664771011
 30
0.0000000000000000
 40
3.099999904632568
 41
0.0000000000000000
 71
     1
 72
     1
  1
{\H0.66x;{MIN 0.75}}
 11
6.123233995736766e-017
 21
1.000000000000000
 31
0.0000000000000000
  7
STANDARD
  0
LEADER
  5
249
100
AcDbEntity
  8
MAIN0
  6
CONTINUOUS
 62
3
100
AcDbLeader
  3
MAIN001
 73
     3
 74
     0
 75
     0
 76
     2
 10
127.5682393278790
 20
208.1146663817336
 30
0.0000000000000000
 10
131.5682393278790
 20
213.1146663817336
 30
0.0000000000000000
1001
ACAD
1000
DSTYLE
1002
{
1070
   173
1070
     1
1070
     6
1000
_OPEN
1070
     7
1000
_OPEN
1002
}
  0
MTEXT
  5
24A
100
AcDbEntity
  8
MAIN0
  6
CONTINUOUS
 62
3
100
AcDbMText
 10
71.08223936265836
 20
266.9146665724685
 30
0.0000000000000000
 40
3.099999904632568
 41
0.0000000000000000
 71
     1
 72
     1
  1
{\H0.71x;{COVER:\PPREPARE THE\PLOCATOR FOR SEAL}}
 11
1.000000000000000
 21
0.0000000000000000
 31
0.0000000000000000
  7
STANDARD
  0
INSERT
  5
25F
100
AcDbEntity
  8
MAIN0
  6
CONTINUOUS
 62
3
100
AcDbBlockReference
  2
*X0
 10
0.0000000000000000
 20
0.0000000000000000
 30
0.0000000000000000
 50
0.0000000000000000
  0
LINE
  5
260
100
AcDbEntity
  8
MAIN0
  6
CONTINUOUS
 62
3
100
AcDbLine
 10
253.3242349322067
 20
247.9615946687802
 30
0.0000000000000000
 11
259.6635088583175
 21
234.3669778632306
 31
0.0000000000000000
  0
LINE
  5
261
100
AcDbEntity
  8
MAIN0
  6
CONTINUOUS
 62
3
100
AcDbLine
 10
293.4729697974400
 20
234.3669778632307
 30
0.0000000000000000
 11
299.8122437235510
 21
247.9615946687804
 31
0.0000000000000000
  0
LINE
  5
262
100
AcDbEntity
  8
MAIN0
  6
CONTINUOUS
 62
3
100
AcDbLine
 10
236.7204514042156
 20
194.6284366717540
 30
0.0000000000000000
 11
221.7650784991134
 21
193.3200110837552
 31
0.0000000000000000
  0
LINE
  5
263
100
AcDbEntity
  8
MAIN0
  6
CONTINUOUS
 62
3
100
AcDbLine
 10
245.0143656230574
 20
153.0510645453272
 30
0.0000000000000000
 11
253.6251818737771
 21
165.3485846102161
 31
0.0000000000000000
  0
LINE
  5
264
100
AcDbEntity
  8
MAIN0
  6
CONTINUOUS
 62
3
100
AcDbLine
 10
299.5112967819812
 20
165.3485846102161
 30
0.0000000000000000
 11
308.1221130327008
 21
153.0510645453275
 31
0.0000000000000000
  0
LINE
  5
265
100
AcDbEntity
  8
MAIN0
  6
PHANTOM
 62
3
100
AcDbLine
 10
316.4160272515425
 20
194.6284366717542
 30
0.0000000000000000
 11
292.5073544973404
 21
196.7201744976973
 31
0.0000000000000000
  0
LINE
  5
266
100
AcDbEntity
  8
MAIN0
  6
CONTINUOUS
 62
3
100
AcDbLine
 10
331.3589477229187
 20
193.3211005305398
 30
0.0000000000000000
 11
316.4160272515425
 21
194.6284366717542
 31
0.0000000000000000
  0
CIRCLE
  5
267
100
AcDbEntity
  8
MAIN0
  6
CONTINUOUS
 62
3
100
AcDbCircle
 10
276.5682393278790
 20
230.6146663817453
 30
0.0000000000000000
 40
5.500000000000000
  0
CIRCLE
  5
268
100
AcDbEntity
  8
MAIN0
  6
CONTINUOUS
 62
3
100
AcDbCircle
 10
276.5682393278790
 20
230.6146663817453
 30
0.0000000000000000
 40
5.000000000000000
  0
LINE
  5
269
100
AcDbEntity
  8
MAIN0
  6
CONTINUOUS
 62
3
100
AcDbLine
 10
276.5682393278790
 20
233.5014177276934
 30
0.0000000000000000
 11
274.0682393278790
 21
232.0580420547194
 31
0.0000000000000000
  0
LINE
  5
26A
100
AcDbEntity
  8
MAIN0
  6
CONTINUOUS
 62
3
100
AcDbLine
 10
274.0682393278790
 20
232.0580420547194
 30
0.0000000000000000
 11
274.0682393278790
 21
229.1712907087712
 31
0.0000000000000000
  0
LINE
  5
26B
100
AcDbEntity
  8
MAIN0
  6
CONTINUOUS
 62
3
100
AcDbLine
 10
274.0682393278791
 20
229.1712907087712
 30
0.0000000000000000
 11
276.5682393278790
 21
227.7279150357971
 31
0.0000000000000000
  0
LINE
  5
26C
100
AcDbEntity
  8
MAIN0
  6
CONTINUOUS
 62
3
100
AcDbLine
 10
276.5682393278790
 20
227.7279150357972
 30
0.0000000000000000
 11
279.0682393278790
 21
229.1712907087712
 31
0.0000000000000000
  0
LINE
  5
26D
100
AcDbEntity
  8
MAIN0
  6
CONTINUOUS
 62
3
100
AcDbLine
 10
279.0682393278790
 20
229.1712907087712
 30
0.0000000000000000
 11
279.0682393278790
 21
232.0580420547194
 31
0.0000000000000000
  0
LINE
  5
26E
100
AcDbEntity
  8
MAIN0
  6
CONTINUOUS
 62
3
100
AcDbLine
 10
279.0682393278790
 20
232.0580420547193
 30
0.0000000000000000
 11
276.5682393278791
 21
233.5014177276934
 31
0.0000000000000000
  0
CIRCLE
  5
26F
100
AcDbEntity
  8
MAIN0
  6
CONTINUOUS
 62
3
100
AcDbCircle
 10
284.5916297260571
 20
168.1709657667725
 30
0.0000000000000000
 40
2.500000000000000
  0
CIRCLE
  5
270
100
AcDbEntity
  8
MAIN0
  6
CONTINUOUS
 62
3
100
AcDbCircle
 10
284.5916297260571
 20
168.1709657667725
 30
0.0000000000000000
 40
2.100000000000000
  0
LINE
  5
271
100
AcDbEntity
  8
MAIN0
  6
CONTINUOUS
 62
3
100
AcDbLine
 10
236.5682393278792
 20
122.6146663817339
 30
0.0000000000000000
 11
316.5682393278792
 21
122.6146663817339
 31
0.0000000000000000
  0
LINE
  5
272
100
AcDbEntity
  8
MAIN0
  6
CONTINUOUS
 62
3
100
AcDbLine
 10
236.5682393278792
 20
142.6146663817339
 30
0.0000000000000000
 11
316.5682393278792
 21
142.6146663817339
 31
0.0000000000000000
  0
LINE
  5
273
100
AcDbEntity
  8
MAIN0
  6
CENTER
 62
3
100
AcDbLine
 10
300.0682393278788
 20
141.9633714365773
 30
0.0000000000000000
 11
300.0682393278788
 21
117.7614014976419
 31
0.0000000000000000
  0
LINE
  5
274
100
AcDbEntity
  8
MAIN0
  6
HIDDEN
 62
3
100
AcDbLine
 10
247.2190316329590
 20
122.6146663817328
 30
0.0000000000000000
 11
247.5682393278777
 21
132.6146663817310
 31
0.0000000000000000
  0
LINE
  5
275
100
AcDbEntity
  8
MAIN0
  6
HIDDEN
 62
3
100
AcDbLine
 10
246.7187268608092
 20
122.6146663817335
 30
0.0000000000000000
 11
247.0679345557280
 21
132.6146663817348
 31
0.0000000000000000
  0
LINE
  5
276
100
AcDbEntity
  8
MAIN0
  6
HIDDEN
 62
3
100
AcDbLine
 10
258.9174470228001
 20
122.6146663817326
 30
0.0000000000000000
 11
258.5682393278813
 21
132.6146663817312
 31
0.0000000000000000
  0
LINE
  5
277
100
AcDbEntity
  8
MAIN0
  6
HIDDEN
 62
3
100
AcDbLine
 10
259.4177517949494
 20
122.6146663817326
 30
0.0000000000000000
 11
259.0685441000305
 21
132.6146663817342
 31
0.0000000000000000
  0
LINE
  5
278
100
AcDbEntity
  8
MAIN0
  6
CONTINUOUS
 62
3
100
AcDbLine
 10
245.0682393278792
 20
121.6146663817336
 30
0.0000000000000000
 11
261.0682393278792
 21
121.6146663817336
 31
0.0000000000000000
  0
LINE
  5
279
100
AcDbEntity
  8
MAIN0
  6
CONTINUOUS
 62
3
100
AcDbLine
 10
245.0682393278792
 20
122.6146663817339
 30
0.0000000000000000
 11
245.0682393278792
 21
121.6146663817339
 31
0.0000000000000000
  0
LINE
  5
27A
100
AcDbEntity
  8
MAIN0
  6
CONTINUOUS
 62
3
100
AcDbLine
 10
261.0682393278792
 20
122.6146663817339
 30
0.0000000000000000
 11
261.0682393278792
 21
121.6146663817339
 31
0.0000000000000000
  0
LINE
  5
27B
100
AcDbEntity
  8
MAIN0
  6
HIDDEN
 62
3
100
AcDbLine
 10
305.9174470228001
 20
122.6146663817327
 30
0.0000000000000000
 11
305.5682393278813
 21
132.6146663817312
 31
0.0000000000000000
  0
LINE
  5
27C
100
AcDbEntity
  8
MAIN0
  6
HIDDEN
 62
3
100
AcDbLine
 10
306.4177517949497
 20
122.6146663817327
 30
0.0000000000000000
 11
306.0685441000309
 21
132.6146663817343
 31
0.0000000000000000
  0
LINE
  5
27D
100
AcDbEntity
  8
MAIN0
  6
HIDDEN
 62
3
100
AcDbLine
 10
294.2190316329587
 20
122.6146663817328
 30
0.0000000000000000
 11
294.5682393278775
 21
132.6146663817312
 31
0.0000000000000000
  0
LINE
  5
27E
100
AcDbEntity
  8
MAIN0
  6
HIDDEN
 62
3
100
AcDbLine
 10
293.7187268608094
 20
122.6146663817334
 30
0.0000000000000000
 11
294.0679345557282
 21
132.6146663817347
 31
0.0000000000000000
  0
LINE
  5
27F
100
AcDbEntity
  8
MAIN0
  6
CONTINUOUS
 62
3
100
AcDbLine
 10
308.0682393278792
 20
121.6146663817337
 30
0.0000000000000000
 11
292.0682393278792
 21
121.6146663817337
 31
0.0000000000000000
  0
LINE
  5
280
100
AcDbEntity
  8
MAIN0
  6
CONTINUOUS
 62
3
100
AcDbLine
 10
308.0682393278792
 20
122.6146663817339
 30
0.0000000000000000
 11
308.0682393278792
 21
121.6146663817339
 31
0.0000000000000000
  0
LINE
  5
281
100
AcDbEntity
  8
MAIN0
  6
CONTINUOUS
 62
3
100
AcDbLine
 10
292.0682393278792
 20
122.6146663817339
 30
0.0000000000000000
 11
292.0682393278792
 21
121.6146663817339
 31
0.0000000000000000
  0
LINE
  5
282
100
AcDbEntity
  8
MAIN0
  6
CENTER
 62
3
100
AcDbLine
 10
265.5682393278792
 20
141.4841598755380
 30
0.0000000000000000
 11
265.5682393278792
 21
128.9392108577596
 31
0.0000000000000000
  0
CIRCLE
  5
283
100
AcDbEntity
  8
MAIN0
  6
CONTINUOUS
 62
3
100
AcDbCircle
 10
287.5682393278792
 20
135.1146663817337
 30
0.0000000000000000
 40
5.000000000000000
  0
LINE
  5
284
100
AcDbEntity
  8
MAIN0
  6
CONTINUOUS
 62
3
100
AcDbLine
 10
287.5682393278790
 20
138.0014177276815
 30
0.0000000000000000
 11
285.0682393278790
 21
136.5580420547075
 31
0.0000000000000000
  0
LINE
  5
285
100
AcDbEntity
  8
MAIN0
  6
CONTINUOUS
 62
3
100
AcDbLine
 10
285.0682393278792
 20
136.5580420547080
 30
0.0000000000000000
 11
285.0682393278792
 21
133.6712907087598
 31
0.0000000000000000
  0
LINE
  5
286
100
AcDbEntity
  8
MAIN0
  6
CONTINUOUS
 62
3
100
AcDbLine
 10
285.0682393278790
 20
133.6712907087592
 30
0.0000000000000000
 11
287.5682393278790
 21
132.2279150357851
 31
0.0000000000000000
  0
LINE
  5
287
100
AcDbEntity
  8
MAIN0
  6
CONTINUOUS
 62
3
100
AcDbLine
 10
287.5682393278790
 20
132.2279150357853
 30
0.0000000000000000
 11
290.0682393278790
 21
133.6712907087594
 31
0.0000000000000000
  0
LINE
  5
288
100
AcDbEntity
  8
MAIN0
  6
CONTINUOUS
 62
3
100
AcDbLine
 10
290.0682393278792
 20
133.6712907087598
 30
0.0000000000000000
 11
290.0682393278792
 21
136.5580420547080
 31
0.0000000000000000
  0
LINE
  5
289
100
AcDbEntity
  8
MAIN0
  6
CONTINUOUS
 62
3
100
AcDbLine
 10
290.0682393278790
 20
136.5580420547073
 30
0.0000000000000000
 11
287.5682393278790
 21
138.0014177276814
 31
0.0000000000000000
  0
CIRCLE
  5
28A
100
AcDbEntity
  8
MAIN0
  6
CONTINUOUS
 62
3
100
AcDbCircle
 10
265.5682393278792
 20
135.1146663817337
 30
0.0000000000000000
 40
5.000000000000000
  0
LINE
  5
28B
100
AcDbEntity
  8
MAIN0
  6
CONTINUOUS
 62
3
100
AcDbLine
 10
265.5682393278789
 20
138.0014177276816
 30
0.0000000000000000
 11
263.0682393278789
 21
136.5580420547075
 31
0.0000000000000000
  0
LINE
  5
28C
100
AcDbEntity
  8
MAIN0
  6
CONTINUOUS
 62
3
100
AcDbLine
 10
263.0682393278792
 20
136.5580420547080
 30
0.0000000000000000
 11
263.0682393278792
 21
133.6712907087598
 31
0.0000000000000000
  0
LINE
  5
28D
100
AcDbEntity
  8
MAIN0
  6
CONTINUOUS
 62
3
100
AcDbLine
 10
263.0682393278791
 20
133.6712907087591
 30
0.0000000000000000
 11
265.5682393278791
 21
132.2279150357850
 31
0.0000000000000000
  0
LINE
  5
28E
100
AcDbEntity
  8
MAIN0
  6
CONTINUOUS
 62
3
100
AcDbLine
 10
265.5682393278789
 20
132.2279150357853
 30
0.0000000000000000
 11
268.0682393278789
 21
133.6712907087594
 31
0.0000000000000000
  0
LINE
  5
28F
100
AcDbEntity
  8
MAIN0
  6
CONTINUOUS
 62
3
100
AcDbLine
 10
268.0682393278792
 20
133.6712907087598
 30
0.0000000000000000
 11
268.0682393278792
 21
136.5580420547080
 31
0.0000000000000000
  0
LINE
  5
290
100
AcDbEntity
  8
MAIN0
  6
CONTINUOUS
 62
3
100
AcDbLine
 10
268.0682393278792
 20
136.5580420547072
 30
0.0000000000000000
 11
265.5682393278792
 21
138.0014177276813
 31
0.0000000000000000
  0
LINE
  5
291
100
AcDbEntity
  8
MAIN0
  6
CENTER
 62
3
100
AcDbLine
 10
253.0682393278792
 20
141.3005280364200
 30
0.0000000000000000
 11
253.0682393278792
 21
117.7614014976417
 31
0.0000000000000000
  0
LINE
  5
292
100
AcDbEntity
  8
MAIN0
  6
HIDDEN
 62
3
100
AcDbLine
 10
271.7042393278791
 20
122.6146663817340
 30
0.0000000000000000
 11
271.8979893278791
 21
128.8146663817337
 31
0.0000000000000000
  0
LINE
  5
293
100
AcDbEntity
  8
MAIN0
  6
HIDDEN
 62
3
100
AcDbLine
 10
281.2384893278788
 20
128.8146663817337
 30
0.0000000000000000
 11
281.4322393278789
 21
122.6146663817335
 31
0.0000000000000000
  0
LINE
  5
294
100
AcDbEntity
  8
MAIN0
  6
HIDDEN
 62
3
100
AcDbLine
 10
272.2852393278789
 20
122.6146663817339
 30
0.0000000000000000
 11
272.4789893278789
 21
128.8146663817340
 31
0.0000000000000000
  0
LINE
  5
295
100
AcDbEntity
  8
MAIN0
  6
HIDDEN
 62
3
100
AcDbLine
 10
280.8512393278792
 20
122.6146663817337
 30
0.0000000000000000
 11
280.6574893278792
 21
128.8146663817337
 31
0.0000000000000000
  0
CIRCLE
  5
296
100
AcDbEntity
  8
MAIN0
  6
HIDDEN
 62
3
100
AcDbCircle
 10
276.5682393278792
 20
135.1146663817337
 30
0.0000000000000000
 40
2.500000000000000
  0
CIRCLE
  5
297
100
AcDbEntity
  8
MAIN0
  6
HIDDEN
 62
3
100
AcDbCircle
 10
300.0682393278792
 20
135.1146663817334
 30
0.0000000000000000
 40
2.500000000000000
  0
CIRCLE
  5
298
100
AcDbEntity
  8
MAIN0
  6
HIDDEN
 62
3
100
AcDbCircle
 10
253.0682393278796
 20
135.1146663817337
 30
0.0000000000000000
 40
2.500000000000000
  0
MTEXT
  5
299
100
AcDbEntity
  8
MAIN0
  6
CONTINUOUS
 62
3
100
AcDbMText
 10
246.8865956430978
 20
119.6698671618950
 30
0.0000000000000000
 40
4.000000000000000
 41
0.0000000000000000
 71
     1
 72
     1
  1
{\H0.92x;{閉\PCLOSE}}
 11
1.000000000000000
 21
0.0000000000000000
 31
0.0000000000000000
  7
KNJYOKO
  0
MTEXT
  5
29A
100
AcDbEntity
  8
MAIN0
  6
CONTINUOUS
 62
3
100
AcDbMText
 10
302.2498830126599
 20
119.6698671618950
 30
0.0000000000000000
 40
4.000000000000000
 41
0.0000000000000000
 71
     1
 72
     1
  1
{\H0.91x;{開\POPEN}}
 11
1.000000000000000
 21
4.440892098500626e-016
 31
0.0000000000000000
  7
KNJYOKO
  0
LINE
  5
29B
100
AcDbEntity
  8
MAIN0
  6
CONTINUOUS
 62
3
100
AcDbLine
 10
316.5682393278792
 20
122.6146663817339
 30
0.0000000000000000
 11
316.5682393278792
 21
142.6146663817339
 31
0.0000000000000000
  0
LINE
  5
29C
100
AcDbEntity
  8
MAIN0
  6
CONTINUOUS
 62
3
100
AcDbLine
 10
236.5682393278793
 20
122.6146663817339
 30
0.0000000000000000
 11
236.5682393278793
 21
142.6146663817337
 31
0.0000000000000000
  0
CIRCLE
  5
29D
100
AcDbEntity
  8
MAIN0
  6
HIDDEN
 62
3
100
AcDbCircle
 10
293.0682393278790
 20
168.3867333893797
 30
0.0000000000000000
 40
4.864000000000001
  0
CIRCLE
  5
29E
100
AcDbEntity
  8
MAIN0
  6
HIDDEN
 62
3
100
AcDbCircle
 10
293.0682393278790
 20
168.3867333893797
 30
0.0000000000000000
 40
4.283000000000000
  0
LEADER
  5
29F
100
AcDbEntity
  8
MAIN0
  6
CONTINUOUS
 62
3
100
AcDbLeader
  3
MAIN001
 73
     0
 74
     0
 75
     1
 40
3.099999904632568
 41
31.70100001788137
 76
     3
 10
319.2018930648579
 20
200.8310276683214
 30
0.0000000000000000
 10
361.5682393278790
 20
228.1146663817336
 30
0.0000000000000000
 10
363.3532392752184
 20
228.1146663817336
 30
0.0000000000000000
340
2A0
213
0.0000000000000000
223
-0.5000000000000000
233
0.0000000000000000
1001
ACAD
1000
DSTYLE
1002
{
1070
   147
1040
0.0
1070
    77
1070
     1
1070
   173
1070
     1
1070
     6
1000
_DOT
1070
     7
1000
_DOT
1002
}
  0
MTEXT
  5
2A0
102
{ACAD_REACTORS
330
29F
102
}
100
AcDbEntity
  8
MAIN0
  6
CONTINUOUS
 62
3
100
AcDbMText
 10
363.3542392752183
 20
231.7146662863662
 30
0.0000000000000000
 40
3.099999904632568
 41
0.0000000000000000
 71
     1
 72
     1
  1
{\H0.70x;{表面追加工範囲 (3ヶ所)\PADDITIONAL\PMACHINING AREA\P(3 PLACE)}}
 11
1.000000000000000
 21
0.0000000000000000
 31
0.0000000000000000
  7
KNJYOKO
  0
LEADER
  5
2A1
100
AcDbEntity
  8
MAIN0
  6
CONTINUOUS
 62
3
100
AcDbLeader
  3
MAIN001
 73
     0
 74
     0
 75
     1
 40
3.099999904632568
 41
10.40100000596044
 76
     3
 10
281.3353643278788
 20
125.7146663817337
 30
0.0000000000000000
 10
324.3198625379106
 20
93.72455687669492
 30
0.0000000000000000
 10
326.1048624852499
 20
93.72455687669492
 30
0.0000000000000000
340
2A2
213
0.0000000000000000
223
-0.5000000000000000
233
0.0000000000000000
1001
ACAD
1000
DSTYLE
1002
{
1070
   147
1040
0.0
1070
    77
1070
     1
1070
   173
1070
     1
1070
     6
1000
_OPEN
1070
     7
1000
_OPEN
1002
}
  0
MTEXT
  5
2A2
102
{ACAD_REACTORS
330
2A1
102
}
100
AcDbEntity
  8
MAIN0
  6
CONTINUOUS
 62
3
100
AcDbMText
 10
326.1058624852499
 20
97.32455678132749
 30
0.0000000000000000
 40
3.099999904632568
 41
0.0000000000000000
 71
     1
 72
     1
  1
{\H0.70x;{Rc1/8}}
 11
1.000000000000000
 21
0.0000000000000000
 31
0.0000000000000000
  7
STANDARD
  0
LEADER
  5
2A3
100
AcDbEntity
  8
MAIN0
  6
CONTINUOUS
 62
3
100
AcDbLeader
  3
MAIN001
 73
     0
 74
     0
 75
     1
 40
3.099999904632568
 41
14.60100000894067
 76
     3
 10
306.2431479474903
 20
127.6146663817335
 30
0.0000000000000000
 10
324.3198625378508
 20
108.6199983166189
 30
0.0000000000000000
 10
326.1048624851901
 20
108.6199983166189
 30
0.0000000000000000
340
2A4
213
0.0000000000000000
223
-0.5000000000000000
233
0.0000000000000000
1001
ACAD
1000
DSTYLE
1002
{
1070
   147
1040
0.0
1070
    77
1070
     1
1070
   173
1070
     1
1070
     6
1000
_OPEN
1070
     7
1000
_OPEN
1002
}
  0
MTEXT
  5
2A4
102
{ACAD_REACTORS
330
2A3
102
}
100
AcDbEntity
  8
MAIN0
  6
CONTINUOUS
 62
3
100
AcDbMText
 10
326.1058624851901
 20
112.2199982212514
 30
0.0000000000000000
 40
3.099999904632568
 41
0.0000000000000000
 71
     1
 72
     1
  1
{\H0.70x;{2-Rc1/4}}
 11
1.000000000000000
 21
0.0000000000000000
 31
0.0000000000000000
  7
STANDARD
  0
LEADER
  5
2A5
100
AcDbEntity
  8
MAIN0
  6
CONTINUOUS
 62
3
100
AcDbLeader
  3
MAIN001
 73
     0
 75
     1
 40
3.099999904632568
 41
31.39900002086165
 76
     3
 10
381.7169314631613
 20
134.2626738398826
 30
0.0000000000000000
 10
379.8568412197986
 20
114.2002740912931
 30
0.0000000000000000
 10
378.0698412724593
 20
114.2002740912931
 30
0.0000000000000000
340
2A6
213
0.0000000000000000
223
-0.5000000000000000
233
0.0000000000000000
1001
ACAD
1000
DSTYLE
1002
{
1070
   147
1040
0.0
1070
    77
1070
     1
1070
   173
1070
     1
1070
     6
1000
_OPEN
1070
     7
1000
_OPEN
1002
}
  0
MTEXT
  5
2A6
102
{ACAD_REACTORS
330
2A5
102
}
100
AcDbEntity
  8
MAIN0
  6
CONTINUOUS
 62
3
100
AcDbMText
 10
346.6708412515977
 20
117.8002739959257
 30
0.0000000000000000
 40
3.099999904632568
 41
0.0000000000000000
 71
     1
 72
     1
  1
{\H0.71x;{ロックバルブユニット仕様\P（エア専用）\PLOCK VALVE UNIT\P(FOR AIR)}}
 11
1.000000000000000
 21
0.0000000000000000
 31
0.0000000000000000
  7
KNJYOKO
  0
LINE
  5
2A7
100
AcDbEntity
  8
MAIN0
  6
CONTINUOUS
 62
3
100
AcDbLine
 10
325.8214708299400
 20
193.8055669832120
 30
0.0000000000000000
 11
304.3326436141969
 21
231.0253075159480
 31
0.0000000000000000
  0
ELLIPSE
  5
2A8
100
AcDbEntity
  8
MAIN0
  6
CONTINUOUS
 62
3
100
AcDbEllipse
 10
319.1422681812308
 20
222.6947934007030
 30
0.0000000000000000
 11
-3.749999999999987
 21
6.495190528383297
 31
0.0000000000000000
210
0.0000000000000000
220
0.0000000000000000
230
1.000000000000000
 40
0.8660000000000001
 41
0.0000000000000000
 42
3.141592653589793
  0
LINE
  5
2A9
100
AcDbEntity
  8
MAIN0
  6
CENTER
 62
3
100
AcDbLine
 10
320.8289267382857
 20
216.7304751447936
 30
0.0000000000000000
 11
314.5551013483272
 21
227.5970594780224
 31
0.0000000000000000
  0
LINE
  5
2AA
100
AcDbEntity
  8
MAIN0
  6
CENTER
 62
12
100
AcDbLine
 10
309.6578246418774
 20
217.2189473701436
 30
0.0000000000000000
 11
327.4127125760848
 21
227.4697366983899
 31
0.0000000000000000
  0
LINE
  5
2AB
100
AcDbEntity
  8
MAIN0
  6
CONTINUOUS
 62
3
100
AcDbLine
 10
315.3922681812322
 20
229.1899839290870
 30
0.0000000000000000
 11
319.8223361935418
 21
231.7476848885223
 31
0.0000000000000000
  0
LINE
  5
2AC
100
AcDbEntity
  8
MAIN0
  6
CONTINUOUS
 62
3
100
AcDbLine
 10
322.8922681812320
 20
216.1996028723208
 30
0.0000000000000000
 11
327.3223361935416
 21
218.7573038317560
 31
0.0000000000000000
  0
LINE
  5
2AD
100
AcDbEntity
  8
MAIN0
  6
CONTINUOUS
 62
3
100
AcDbLine
 10
300.3640816335436
 20
237.8990584994253
 30
0.0000000000000000
 11
297.4630655323572
 21
242.9237657802556
 31
0.0000000000000000
  0
CIRCLE
  5
2AE
100
AcDbEntity
  8
MAIN0
  6
CONTINUOUS
 62
3
100
AcDbCircle
 10
276.5682393278790
 20
177.1146663817440
 30
0.0000000000000000
 40
4.750000000000000
  0
LINE
  5
2AF
100
AcDbEntity
  8
MAIN0
  6
CONTINUOUS
 62
3
100
AcDbLine
 10
276.5682393278790
 20
178.8467171893128
 30
0.0000000000000000
 11
275.0682393278790
 21
177.9806917855284
 31
0.0000000000000000
  0
LINE
  5
2B0
100
AcDbEntity
  8
MAIN0
  6
CONTINUOUS
 62
3
100
AcDbLine
 10
275.0682393278790
 20
177.9806917855284
 30
0.0000000000000000
 11
275.0682393278790
 21
176.2486409779595
 31
0.0000000000000000
  0
LINE
  5
2B1
100
AcDbEntity
  8
MAIN0
  6
CONTINUOUS
 62
3
100
AcDbLine
 10
275.0682393278790
 20
176.2486409779596
 30
0.0000000000000000
 11
276.5682393278790
 21
175.3826155741751
 31
0.0000000000000000
  0
LINE
  5
2B2
100
AcDbEntity
  8
MAIN0
  6
CONTINUOUS
 62
3
100
AcDbLine
 10
276.5682393278790
 20
175.3826155741751
 30
0.0000000000000000
 11
278.0682393278790
 21
176.2486409779595
 31
0.0000000000000000
  0
LINE
  5
2B3
100
AcDbEntity
  8
MAIN0
  6
CONTINUOUS
 62
3
100
AcDbLine
 10
278.0682393278790
 20
176.2486409779595
 30
0.0000000000000000
 11
278.0682393278790
 21
177.9806917855284
 31
0.0000000000000000
  0
LINE
  5
2B4
100
AcDbEntity
  8
MAIN0
  6
CONTINUOUS
 62
3
100
AcDbLine
 10
278.0682393278790
 20
177.9806917855285
 30
0.0000000000000000
 11
276.5682393278790
 21
178.8467171893129
 31
0.0000000000000000
  0
LINE
  5
2B5
100
AcDbEntity
  8
MAIN0
  6
PHANTOM
 62
3
100
AcDbLine
 10
331.5218077373253
 20
160.7970389239364
 30
0.0000000000000000
 11
336.3630369200252
 21
163.5921238957689
 31
0.0000000000000000
  0
LINE
  5
2B6
100
AcDbEntity
  8
MAIN0
  6
PHANTOM
 62
3
100
AcDbLine
 10
336.3630369200183
 20
169.1822938394460
 30
0.0000000000000000
 11
336.3630369200253
 21
163.5921238957690
 31
0.0000000000000000
  0
LINE
  5
2B7
100
AcDbEntity
  8
MAIN0
  6
PHANTOM
 62
3
100
AcDbLine
 10
334.1979734105129
 20
170.4322938394644
 30
0.0000000000000000
 11
329.3567442278268
 21
167.6372088676081
 31
0.0000000000000000
  0
LINE
  5
2B8
100
AcDbEntity
  8
MAIN0
  6
PHANTOM
 62
3
100
AcDbLine
 10
329.3567442278261
 20
162.0470389239655
 30
0.0000000000000000
 11
329.3567442278467
 21
167.6372088676424
 31
0.0000000000000000
  0
LINE
  5
2B9
100
AcDbEntity
  8
MAIN0
  6
CONTINUOUS
 62
3
100
AcDbLine
 10
117.5682893278789
 20
184.1146663817328
 30
0.0000000000000000
 11
117.5682893278789
 21
182.1146663817338
 31
0.0000000000000000
  0
LINE
  5
2BA
100
AcDbEntity
  8
MAIN0
  6
CONTINUOUS
 62
3
100
AcDbLine
 10
103.5682393278791
 20
209.6146663817349
 30
0.0000000000000000
 11
118.6682393278790
 21
209.6146663817343
 31
0.0000000000000000
  0
LINE
  5
2BB
100
AcDbEntity
  8
MAIN0
  6
CONTINUOUS
 62
3
100
AcDbLine
 10
103.5682393278791
 20
186.6146663817323
 30
0.0000000000000000
 11
118.6682393278790
 21
186.6146663817330
 31
0.0000000000000000
  0
LINE
  5
2BC
100
AcDbEntity
  8
MAIN0
  6
CENTER
 62
3
100
AcDbLine
 10
110.1374886725000
 20
177.1146663817319
 30
0.0000000000000000
 11
131.2645410780094
 21
177.1146663817335
 31
0.0000000000000000
  0
LINE
  5
2BD
100
AcDbEntity
  8
MAIN0
  6
CONTINUOUS
 62
3
100
AcDbLine
 10
127.5682393278790
 20
172.1146663817336
 30
0.0000000000000000
 11
127.5682393278790
 21
216.1146663817340
 31
0.0000000000000000
  0
LINE
  5
2BE
100
AcDbEntity
  8
MAIN0
  6
CONTINUOUS
 62
3
100
AcDbLine
 10
126.5682393278790
 20
216.1146663817341
 30
0.0000000000000000
 11
127.5682393278790
 21
216.1146663817340
 31
0.0000000000000000
  0
LINE
  5
2BF
100
AcDbEntity
  8
MAIN0
  6
CONTINUOUS
 62
3
100
AcDbLine
 10
125.9292318934130
 20
245.2888829913297
 30
0.0000000000000000
 11
148.5682393278791
 21
250.9334215013171
 31
0.0000000000000000
  0
LINE
  5
2C0
100
AcDbEntity
  8
MAIN0
  6
CONTINUOUS
 62
3
100
AcDbLine
 10
144.5682393278790
 20
249.9444691634781
 30
0.0000000000000000
 11
144.5682393278790
 21
251.8646663817336
 31
0.0000000000000000
  0
LINE
  5
2C1
100
AcDbEntity
  8
MAIN0
  6
CONTINUOUS
 62
3
100
AcDbLine
 10
148.5682393278790
 20
246.1146663817312
 30
0.0000000000000000
 11
148.5682393278790
 21
250.9334215013171
 31
0.0000000000000000
  0
LINE
  5
2C2
100
AcDbEntity
  8
MAIN0
  6
CONTINUOUS
 62
3
100
AcDbLine
 10
134.5682393278791
 20
199.6146663817336
 30
0.0000000000000000
 11
148.5682393278790
 21
199.6146663817331
 31
0.0000000000000000
  0
LINE
  5
2C3
100
AcDbEntity
  8
MAIN0
  6
CONTINUOUS
 62
3
100
AcDbLine
 10
134.5682393278791
 20
219.1146663817334
 30
0.0000000000000000
 11
134.5682393278791
 21
199.6146663817336
 31
0.0000000000000000
  0
LINE
  5
2C4
100
AcDbEntity
  8
MAIN0
  6
CONTINUOUS
 62
3
100
AcDbLine
 10
131.5682393278791
 20
219.1146663817338
 30
0.0000000000000000
 11
134.5682393278790
 21
219.1146663817334
 31
0.0000000000000000
  0
LINE
  5
2C5
100
AcDbEntity
  8
MAIN0
  6
CONTINUOUS
 62
3
100
AcDbLine
 10
144.5682393278789
 20
246.1146663817319
 30
0.0000000000000000
 11
148.5682393278791
 21
246.1146663817312
 31
0.0000000000000000
  0
LINE
  5
2C6
100
AcDbEntity
  8
MAIN0
  6
CONTINUOUS
 62
3
100
AcDbLine
 10
120.7337864923395
 20
222.3506267492514
 30
0.0000000000000000
 11
131.5682393278791
 21
225.0519592366351
 31
0.0000000000000000
  0
LINE
  5
2C7
100
AcDbEntity
  8
MAIN0
  6
PHANTOM
 62
3
100
AcDbLine
 10
150.6104751948064
 20
251.4426080913528
 30
0.0000000000000000
 11
151.5682393278790
 21
251.6814055098466
 31
0.0000000000000000
  0
LINE
  5
2C8
100
AcDbEntity
  8
MAIN0
  6
PHANTOM
 62
3
100
AcDbLine
 10
151.5682393278790
 20
246.8626503902607
 30
0.0000000000000000
 11
151.5682393278790
 21
251.6814055098466
 31
0.0000000000000000
  0
LINE
  5
2C9
100
AcDbEntity
  8
MAIN0
  6
PHANTOM
 62
3
100
AcDbLine
 10
150.6104751948057
 20
246.8626503902609
 30
0.0000000000000000
 11
151.5682393278791
 21
246.8626503902607
 31
0.0000000000000000
  0
ARC
  5
2CA
100
AcDbEntity
  8
MAIN0
  6
CONTINUOUS
 62
3
100
AcDbCircle
 10
135.3682393278790
 20
236.4146663817338
 30
0.0000000000000000
 40
4.000000000000000
100
AcDbArc
 50
67.66835499074961
 51
198.1948723387667
  0
LINE
  5
2CB
100
AcDbEntity
  8
MAIN0
  6
CONTINUOUS
 62
3
100
AcDbLine
 10
135.5682393278790
 20
240.1146663817333
 30
0.0000000000000000
 11
148.5682393278790
 21
240.1146663817314
 31
0.0000000000000000
  0
LINE
  5
2CC
100
AcDbEntity
  8
MAIN0
  6
CONTINUOUS
 62
3
100
AcDbLine
 10
131.5682393278790
 20
236.1146663817339
 30
0.0000000000000000
 11
135.5682393278790
 21
240.1146663817333
 31
0.0000000000000000
  0
DIMENSION
  5
2D5
100
AcDbEntity
  8
MAIN0
  6
CONTINUOUS
 62
3
100
AcDbDimension
  2
*D21
 10
176.5682393278790
 20
199.6146663817331
 30
0.0000000000000000
 11
176.0682393278790
 21
219.8646663817323
 31
0.0000000000000000
 70
32
  3
MAIN001
100
AcDbAlignedDimension
 13
148.5682393278790
 23
240.1146663817314
 33
0.0000000000000000
 14
148.5682393278790
 24
199.6146663817331
 34
0.0000000000000000
 50
90.00000000000000
100
AcDbRotatedDimension
1001
ACAD
1000
DSTYLE
1002
{
1070
   173
1070
     1
1070
     6
1000
_OPEN
1070
     7
1000
_OPEN
1070
    41
1040
2.000000
1002
}
  0
LINE
  5
2D6
100
AcDbEntity
  8
MAIN0
  6
CONTINUOUS
 62
3
100
AcDbLine
 10
114.3682893278789
 20
212.1146663817346
 30
0.0000000000000000
 11
117.5682893278789
 21
212.1146663817345
 31
0.0000000000000000
  0
LINE
  5
2D7
100
AcDbEntity
  8
MAIN0
  6
CONTINUOUS
 62
3
100
AcDbLine
 10
114.3682893278789
 20
212.1146663817344
 30
0.0000000000000000
 11
114.3682893278789
 21
214.1146663817335
 31
0.0000000000000000
  0
ELLIPSE
  5
2D8
100
AcDbEntity
  8
MAIN0
  6
CONTINUOUS
 62
3
100
AcDbEllipse
 10
115.9682893278789
 20
213.1146663817340
 30
0.0000000000000000
 11
-1.600000000000000
 21
0.0000000000000000
 31
0.0000000000000000
210
0.0000000000000000
220
0.0000000000000000
230
1.000000000000000
 40
0.6250000000000000
 41
0.0000000000000000
 42
6.283185307179586
  0
LINE
  5
2D9
100
AcDbEntity
  8
MAIN0
  6
CONTINUOUS
 62
3
100
AcDbLine
 10
114.3682893278789
 20
184.1146663817327
 30
0.0000000000000000
 11
117.5682893278789
 21
184.1146663817328
 31
0.0000000000000000
  0
ELLIPSE
  5
2DA
100
AcDbEntity
  8
MAIN0
  6
CONTINUOUS
 62
3
100
AcDbEllipse
 10
115.9682893278789
 20
183.1146663817332
 30
0.0000000000000000
 11
1.600000000000000
 21
0.0000000000000000
 31
0.0000000000000000
210
0.0000000000000000
220
0.0000000000000000
230
1.000000000000000
 40
0.6250000000000000
 41
0.0000000000000000
 42
6.283185307179586
  0
LINE
  5
2DB
100
AcDbEntity
  8
MAIN0
  6
CONTINUOUS
 62
3
100
AcDbLine
 10
114.3682893278789
 20
184.1146663817328
 30
0.0000000000000000
 11
114.3682893278789
 21
182.1146663817338
 31
0.0000000000000000
  0
LINE
  5
2DC
100
AcDbEntity
  8
MAIN0
  6
CONTINUOUS
 62
3
100
AcDbLine
 10
41.56823932787894
 20
124.1146663817336
 30
0.0000000000000000
 11
41.56823932787894
 21
272.1146663817336
 31
0.0000000000000000
  0
LINE
  5
2DD
100
AcDbEntity
  8
MAIN0
  6
CONTINUOUS
 62
3
100
AcDbLine
 10
41.56823932787893
 20
272.1146663817336
 30
0.0000000000000000
 11
56.56823932787893
 21
272.1146663817336
 31
0.0000000000000000
  0
LINE
  5
2DE
100
AcDbEntity
  8
MAIN0
  6
CONTINUOUS
 62
3
100
AcDbLine
 10
41.56823932787894
 20
124.1146663817336
 30
0.0000000000000000
 11
56.56823932787893
 21
124.1146663817336
 31
0.0000000000000000
  0
LINE
  5
2DF
100
AcDbEntity
  8
MAIN0
  6
CONTINUOUS
 62
3
100
AcDbLine
 10
70.37169176118938
 20
203.6146663817336
 30
0.0000000000000000
 11
83.56823932787894
 21
203.6146663817336
 31
0.0000000000000000
  0
LINE
  5
2E0
100
AcDbEntity
  8
MAIN0
  6
CONTINUOUS
 62
3
100
AcDbLine
 10
74.06823932787894
 20
205.6146663817336
 30
0.0000000000000000
 11
77.26823932787895
 21
205.6146663817336
 31
0.0000000000000000
  0
LINE
  5
2E1
100
AcDbEntity
  8
MAIN0
  6
CONTINUOUS
 62
3
100
AcDbLine
 10
74.06823932787894
 20
203.6146663817336
 30
0.0000000000000000
 11
74.06823932787894
 21
205.6146663817336
 31
0.0000000000000000
  0
LINE
  5
2E2
100
AcDbEntity
  8
MAIN0
  6
CONTINUOUS
 62
3
100
AcDbLine
 10
77.26823932787895
 20
203.6146663817336
 30
0.0000000000000000
 11
77.26823932787895
 21
205.6146663817336
 31
0.0000000000000000
  0
ELLIPSE
  5
2E3
100
AcDbEntity
  8
MAIN0
  6
CONTINUOUS
 62
3
100
AcDbEllipse
 10
75.66823932787895
 20
204.6146663817336
 30
0.0000000000000000
 11
-1.600000000000000
 21
0.0000000000000000
 31
0.0000000000000000
210
0.0000000000000000
220
0.0000000000000000
230
1.000000000000000
 40
0.6250000000000000
 41
0.0000000000000000
 42
6.283185307179586
  0
LINE
  5
2E4
100
AcDbEntity
  8
MAIN0
  6
CONTINUOUS
 62
3
100
AcDbLine
 10
83.06823932787894
 20
198.1146663817336
 30
0.0000000000000000
 11
83.06823932787894
 21
203.6146663817336
 31
0.0000000000000000
  0
LINE
  5
2E5
100
AcDbEntity
  8
MAIN0
  6
CONTINUOUS
 62
3
100
AcDbLine
 10
83.35691446237675
 20
204.1146663817336
 30
0.0000000000000000
 11
103.5682393278792
 21
204.1146663817336
 31
0.0000000000000000
  0
LINE
  5
2E6
100
AcDbEntity
  8
MAIN0
  6
CONTINUOUS
 62
3
100
AcDbLine
 10
83.06823932778165
 20
203.6146663817336
 30
0.0000000000000000
 11
83.35691446237675
 21
204.1146663817336
 31
0.0000000000000000
  0
LINE
  5
2E7
100
AcDbEntity
  8
MAIN0
  6
CONTINUOUS
 62
3
100
AcDbLine
 10
83.35691446233875
 20
202.0939095311736
 30
0.0000000000000000
 11
83.35691446233915
 21
204.1146663817336
 31
0.0000000000000000
  0
LINE
  5
2E8
100
AcDbEntity
  8
MAIN0
  6
CONTINUOUS
 62
3
100
AcDbLine
 10
103.5682393278791
 20
186.6146663817323
 30
0.0000000000000000
 11
103.5682393278791
 21
198.1146663817336
 31
0.0000000000000000
  0
LINE
  5
2E9
100
AcDbEntity
  8
MAIN0
  6
CONTINUOUS
 62
3
100
AcDbLine
 10
70.71102767887118
 20
192.6146663817336
 30
0.0000000000000000
 11
83.06823932787894
 21
192.6146663817336
 31
0.0000000000000000
  0
LINE
  5
2EA
100
AcDbEntity
  8
MAIN0
  6
CONTINUOUS
 62
3
100
AcDbLine
 10
74.06823932787894
 20
190.6146663817336
 30
0.0000000000000000
 11
77.26823932787895
 21
190.6146663817336
 31
0.0000000000000000
  0
LINE
  5
2EB
100
AcDbEntity
  8
MAIN0
  6
CONTINUOUS
 62
3
100
AcDbLine
 10
74.06823932787894
 20
192.6146663817336
 30
0.0000000000000000
 11
74.06823932787894
 21
190.6146663817336
 31
0.0000000000000000
  0
LINE
  5
2EC
100
AcDbEntity
  8
MAIN0
  6
CONTINUOUS
 62
3
100
AcDbLine
 10
77.26823932787895
 20
192.6146663817336
 30
0.0000000000000000
 11
77.26823932787895
 21
190.6146663817336
 31
0.0000000000000000
  0
ELLIPSE
  5
2ED
100
AcDbEntity
  8
MAIN0
  6
CONTINUOUS
 62
3
100
AcDbEllipse
 10
75.66823932787895
 20
191.6146663817336
 30
0.0000000000000000
 11
1.600000000000000
 21
0.0000000000000000
 31
0.0000000000000000
210
0.0000000000000000
220
0.0000000000000000
230
1.000000000000000
 40
0.6250000000000000
 41
0.0000000000000000
 42
6.283185307179586
  0
LINE
  5
2EE
100
AcDbEntity
  8
MAIN0
  6
CONTINUOUS
 62
3
100
AcDbLine
 10
83.06823932787894
 20
198.1146663817336
 30
0.0000000000000000
 11
83.06823932787894
 21
192.6146663817336
 31
0.0000000000000000
  0
LINE
  5
2EF
100
AcDbEntity
  8
MAIN0
  6
CONTINUOUS
 62
3
100
AcDbLine
 10
83.35691446237675
 20
192.1146663817336
 30
0.0000000000000000
 11
103.5682393278792
 21
192.1146663817336
 31
0.0000000000000000
  0
LINE
  5
2F0
100
AcDbEntity
  8
MAIN0
  6
CONTINUOUS
 62
3
100
AcDbLine
 10
83.06823932778167
 20
192.6146663817336
 30
0.0000000000000000
 11
83.35691446237675
 21
192.1146663817336
 31
0.0000000000000000
  0
LINE
  5
2F1
100
AcDbEntity
  8
MAIN0
  6
CONTINUOUS
 62
3
100
AcDbLine
 10
83.35691446233875
 20
194.1354232322937
 30
0.0000000000000000
 11
83.35691446233915
 21
192.1146663817337
 31
0.0000000000000000
  0
LINE
  5
2F2
100
AcDbEntity
  8
MAIN0
  6
CONTINUOUS
 62
3
100
AcDbLine
 10
56.56823932787894
 20
193.8484563748291
 30
0.0000000000000000
 11
56.56823932787894
 21
122.6146663817339
 31
0.0000000000000000
  0
LINE
  5
2F3
100
AcDbEntity
  8
MAIN0
  6
CONTINUOUS
 62
3
100
AcDbLine
 10
126.0682393278791
 20
158.1146663817328
 30
0.0000000000000000
 11
127.0682393278790
 21
158.1146663817330
 31
0.0000000000000000
  0
LINE
  5
2F4
100
AcDbEntity
  8
MAIN0
  6
CONTINUOUS
 62
3
100
AcDbLine
 10
126.0682393278791
 20
158.1146663817328
 30
0.0000000000000000
 11
126.0682393278790
 21
161.1146663817330
 31
0.0000000000000000
  0
LINE
  5
2F5
100
AcDbEntity
  8
MAIN0
  6
CONTINUOUS
 62
3
100
AcDbLine
 10
126.0682393278790
 20
161.1146663817330
 30
0.0000000000000000
 11
126.5682393278791
 21
161.1146663817330
 31
0.0000000000000000
  0
DIMENSION
  5
2FE
100
AcDbEntity
  8
MAIN0
  6
CONTINUOUS
 62
3
100
AcDbDimension
  2
*D22
 10
25.24517309194289
 20
272.1146663817336
 30
0.0000000000000000
 11
24.74517309194289
 21
198.1146663817336
 31
0.0000000000000000
 70
32
  1
\A1;\U+2205148h7
  3
MAIN001
100
AcDbAlignedDimension
 13
41.56823932787894
 23
124.1146663817336
 33
0.0000000000000000
 14
41.56823932787893
 24
272.1146663817336
 34
0.0000000000000000
 50
90.00000000000000
100
AcDbRotatedDimension
1001
ACAD
1000
DSTYLE
1002
{
1070
   173
1070
     1
1070
     6
1000
_OPEN
1070
     7
1000
_OPEN
1070
    41
1040
2.000000
1002
}
  0
LINE
  5
2FF
100
AcDbEntity
  8
MAIN0
  6
PHANTOM
 62
3
100
AcDbLine
 10
121.7682393278789
 20
143.3646663817337
 30
0.0000000000000000
 11
126.0682393278790
 21
143.3646663817337
 31
0.0000000000000000
  0
LINE
  5
300
100
AcDbEntity
  8
MAIN0
  6
CONTINUOUS
 62
3
100
AcDbLine
 10
56.56823932787893
 20
143.3646663817336
 30
0.0000000000000000
 11
105.7682393278789
 21
143.3646663817336
 31
0.0000000000000000
  0
LINE
  5
301
100
AcDbEntity
  8
MAIN0
  6
PHANTOM
 62
3
100
AcDbLine
 10
126.0682393278789
 20
143.3646663817337
 30
0.0000000000000000
 11
127.0682393278790
 21
144.3646663817337
 31
0.0000000000000000
  0
LINE
  5
302
100
AcDbEntity
  8
MAIN0
  6
CONTINUOUS
 62
3
100
AcDbLine
 10
109.0182393278790
 20
253.1646663817336
 30
0.0000000000000000
 11
118.5182393278789
 21
253.1646663817336
 31
0.0000000000000000
  0
LINE
  5
303
100
AcDbEntity
  8
MAIN0
  6
CONTINUOUS
 62
3
100
AcDbLine
 10
121.7682393278789
 20
252.8646663817336
 30
0.0000000000000000
 11
143.5682393278790
 21
252.8646663817336
 31
0.0000000000000000
  0
LINE
  5
304
100
AcDbEntity
  8
MAIN0
  6
CONTINUOUS
 62
3
100
AcDbLine
 10
56.56823932787894
 20
252.8646663817336
 30
0.0000000000000000
 11
105.7682393278789
 21
252.8646663817336
 31
0.0000000000000000
  0
LINE
  5
305
100
AcDbEntity
  8
MAIN0
  6
CONTINUOUS
 62
3
100
AcDbLine
 10
144.5682393278790
 20
251.8646663817336
 30
0.0000000000000000
 11
143.5682393278790
 21
252.8646663817336
 31
0.0000000000000000
  0
LINE
  5
306
100
AcDbEntity
  8
MAIN0
  6
CONTINUOUS
 62
3
100
AcDbLine
 10
83.06823932787893
 20
201.2146663817337
 30
0.0000000000000000
 11
82.46823932787892
 21
200.6146663817336
 31
0.0000000000000000
  0
LINE
  5
307
100
AcDbEntity
  8
MAIN0
  6
CONTINUOUS
 62
3
100
AcDbLine
 10
83.06823932787893
 20
195.0146663817336
 30
0.0000000000000000
 11
82.46823932787892
 21
195.6146663817336
 31
0.0000000000000000
  0
LINE
  5
308
100
AcDbEntity
  8
MAIN0
  6
CONTINUOUS
 62
3
100
AcDbLine
 10
126.5682393278790
 20
214.5146663817334
 30
0.0000000000000000
 11
126.1682393278790
 21
214.1146663817335
 31
0.0000000000000000
  0
LINE
  5
309
100
AcDbEntity
  8
MAIN0
  6
CONTINUOUS
 62
3
100
AcDbLine
 10
118.6682393278790
 20
182.1146663817338
 30
0.0000000000000000
 11
119.0682393278790
 21
182.5146663817338
 31
0.0000000000000000
  0
LINE
  5
30A
100
AcDbEntity
  8
MAIN0
  6
CONTINUOUS
 62
3
100
AcDbLine
 10
118.6682393278790
 20
214.1146663817334
 30
0.0000000000000000
 11
119.0682393278790
 21
213.7146663817334
 31
0.0000000000000000
  0
LINE
  5
30B
100
AcDbEntity
  8
MAIN0
  6
CONTINUOUS
 62
3
100
AcDbLine
 10
119.0682393278790
 20
182.5146663817338
 30
0.0000000000000000
 11
119.0682393278790
 21
198.1146663817336
 31
0.0000000000000000
  0
LINE
  5
30C
100
AcDbEntity
  8
MAIN0
  6
CONTINUOUS
 62
3
100
AcDbLine
 10
119.0682393278790
 20
198.1146663817336
 30
0.0000000000000000
 11
119.0682393278790
 21
213.7146663817335
 31
0.0000000000000000
  0
LINE
  5
30D
100
AcDbEntity
  8
MAIN0
  6
CONTINUOUS
 62
3
100
AcDbLine
 10
119.0682393278789
 20
210.0146663817343
 30
0.0000000000000000
 11
118.6682393278790
 21
209.6146663817343
 31
0.0000000000000000
  0
LINE
  5
30E
100
AcDbEntity
  8
MAIN0
  6
CONTINUOUS
 62
3
100
AcDbLine
 10
119.0682393278789
 20
186.2146663817330
 30
0.0000000000000000
 11
118.6682393278790
 21
186.6146663817330
 31
0.0000000000000000
  0
LINE
  5
30F
100
AcDbEntity
  8
MAIN0
  6
CONTINUOUS
 62
3
100
AcDbLine
 10
112.5049691864329
 20
214.1146663817335
 30
0.0000000000000000
 11
114.3682893278789
 21
214.1146663817335
 31
0.0000000000000000
  0
LINE
  5
310
100
AcDbEntity
  8
MAIN0
  6
CONTINUOUS
 62
3
100
AcDbLine
 10
117.5682893278789
 20
214.1146663817335
 30
0.0000000000000000
 11
118.6682393278790
 21
214.1146663817335
 31
0.0000000000000000
  0
LINE
  5
311
100
AcDbEntity
  8
MAIN0
  6
PHANTOM
 62
3
100
AcDbLine
 10
122.0682393278790
 20
205.8644555800559
 30
0.0000000000000000
 11
122.0682393278790
 21
213.7146663817335
 31
0.0000000000000000
  0
LINE
  5
312
100
AcDbEntity
  8
MAIN0
  6
PHANTOM
 62
12
100
AcDbLine
 10
121.0682893278789
 20
214.1146663817335
 30
0.0000000000000000
 11
121.6682393278790
 21
214.1146663817335
 31
0.0000000000000000
  0
LINE
  5
313
100
AcDbEntity
  8
MAIN0
  6
PHANTOM
 62
3
100
AcDbLine
 10
119.5057065173165
 20
209.6146663817344
 30
0.0000000000000000
 11
121.6682393278790
 21
209.6146663817343
 31
0.0000000000000000
  0
LINE
  5
314
100
AcDbEntity
  8
MAIN0
  6
CONTINUOUS
 62
3
100
AcDbLine
 10
126.5682393278790
 20
181.7146663817338
 30
0.0000000000000000
 11
126.1682393278790
 21
182.1146663817338
 31
0.0000000000000000
  0
LINE
  5
315
100
AcDbEntity
  8
MAIN0
  6
PHANTOM
 62
3
100
AcDbLine
 10
122.0682393278790
 20
194.7863813894680
 30
0.0000000000000000
 11
122.0682393278790
 21
182.5146663817338
 31
0.0000000000000000
  0
LINE
  5
316
100
AcDbEntity
  8
MAIN0
  6
PHANTOM
 62
12
100
AcDbLine
 10
121.0682893278789
 20
182.1146663817338
 30
0.0000000000000000
 11
121.6682393278790
 21
182.1146663817338
 31
0.0000000000000000
  0
LINE
  5
317
100
AcDbEntity
  8
MAIN0
  6
CONTINUOUS
 62
3
100
AcDbLine
 10
82.06823932786472
 20
203.6146663817336
 30
0.0000000000000000
 11
83.06823932787896
 21
203.0373161125364
 31
0.0000000000000000
  0
LINE
  5
318
100
AcDbEntity
  8
MAIN0
  6
CONTINUOUS
 62
3
100
AcDbLine
 10
82.06823932786472
 20
192.6146663817337
 30
0.0000000000000000
 11
83.06823932787896
 21
193.1920166509309
 31
0.0000000000000000
  0
LINE
  5
319
100
AcDbEntity
  8
MAIN0
  6
PHANTOM
 62
3
100
AcDbLine
 10
126.5682393278790
 20
172.1146663817336
 30
0.0000000000000000
 11
127.5682393278790
 21
172.1146663817336
 31
0.0000000000000000
  0
LINE
  5
31A
100
AcDbEntity
  8
MAIN0
  6
PHANTOM
 62
3
100
AcDbLine
 10
109.6374886725000
 20
167.1146663817319
 30
0.0000000000000000
 11
128.2476985126787
 21
167.1146663817333
 31
0.0000000000000000
  0
INSERT
  5
322
100
AcDbEntity
  8
MAIN0
  6
CONTINUOUS
 62
3
100
AcDbBlockReference
  2
D23
 10
159.2496894108191
 20
198.1146663817336
 30
0.0000000000000000
 50
0.0000000000000000
  0
INSERT
  5
32A
100
AcDbEntity
  8
MAIN0
  6
CONTINUOUS
 62
3
100
AcDbBlockReference
  2
D24
 10
159.2496894108191
 20
198.1146663817336
 30
0.0000000000000000
 50
0.0000000000000000
  0
LINE
  5
32B
100
AcDbEntity
  8
MAIN0
  6
CONTINUOUS
 62
3
100
AcDbLine
 10
41.56823932787894
 20
208.1146663817336
 30
0.0000000000000000
 11
46.56823932787894
 21
208.1146663817336
 31
0.0000000000000000
  0
LINE
  5
32C
100
AcDbEntity
  8
MAIN0
  6
CONTINUOUS
 62
3
100
AcDbLine
 10
46.56823932787894
 20
188.1146663817336
 30
0.0000000000000000
 11
46.56823932787894
 21
208.1146663817336
 31
0.0000000000000000
  0
LINE
  5
32D
100
AcDbEntity
  8
MAIN0
  6
CONTINUOUS
 62
3
100
AcDbLine
 10
41.56823932787896
 20
188.1146663817336
 30
0.0000000000000000
 11
46.56823932787894
 21
188.1146663817336
 31
0.0000000000000000
  0
LINE
  5
32E
100
AcDbEntity
  8
MAIN0
  6
CONTINUOUS
 62
3
100
AcDbLine
 10
56.56823932787894
 20
202.4851322587626
 30
0.0000000000000000
 11
56.56823932787894
 21
272.1146663817336
 31
0.0000000000000000
  0
LINE
  5
32F
100
AcDbEntity
  8
MAIN0
  6
CENTER
 62
3
100
AcDbLine
 10
36.90199037288789
 20
263.1146663817336
 30
0.0000000000000000
 11
61.20806191671912
 21
263.1146663817336
 31
0.0000000000000000
  0
LINE
  5
330
100
AcDbEntity
  8
MAIN0
  6
CONTINUOUS
 62
3
100
AcDbLine
 10
41.56823932787894
 20
267.6146663817336
 30
0.0000000000000000
 11
56.56823932787894
 21
267.6146663817336
 31
0.0000000000000000
  0
LINE
  5
331
100
AcDbEntity
  8
MAIN0
  6
CONTINUOUS
 62
3
100
AcDbLine
 10
41.56823932787894
 20
258.6146663817336
 30
0.0000000000000000
 11
56.56823932787894
 21
258.6146663817336
 31
0.0000000000000000
  0
LINE
  5
332
100
AcDbEntity
  8
MAIN0
  6
PHANTOM
 62
3
100
AcDbLine
 10
101.5682393278790
 20
87.61466638173388
 30
0.0000000000000000
 11
56.56823932787825
 21
87.61466638173388
 31
0.0000000000000000
  0
LINE
  5
333
100
AcDbEntity
  8
MAIN0
  6
PHANTOM
 62
3
100
AcDbLine
 10
56.56823932787826
 20
87.61466638173388
 30
0.0000000000000000
 11
56.56823932787894
 21
122.6146663817339
 31
0.0000000000000000
  0
DIMENSION
  5
33C
100
AcDbEntity
  8
MAIN0
  6
CONTINUOUS
 62
3
100
AcDbDimension
  2
*D25
 10
166.5682393278790
 20
199.6146663817331
 30
0.0000000000000000
 11
166.0682393278790
 21
209.3646663817333
 31
0.0000000000000000
 70
32
  3
MAIN001
100
AcDbAlignedDimension
 13
134.5682393278790
 23
219.1146663817334
 33
0.0000000000000000
 14
148.5682393278790
 24
199.6146663817331
 34
0.0000000000000000
 50
90.00000000000000
100
AcDbRotatedDimension
1001
ACAD
1000
DSTYLE
1002
{
1070
   173
1070
     1
1070
     6
1000
_OPEN
1070
     7
1000
_OPEN
1070
    41
1040
2.000000
1002
}
  0
DIMENSION
  5
345
100
AcDbEntity
  8
MAIN0
  6
CONTINUOUS
 62
3
100
AcDbDimension
  2
*D26
 10
166.5682393278790
 20
219.1146663817334
 30
0.0000000000000000
 11
166.0682393278790
 21
224.8646663817334
 31
0.0000000000000000
 70
32
  3
MAIN001
100
AcDbAlignedDimension
 13
151.1521535813004
 23
230.6146663817334
 33
0.0000000000000000
 14
134.5682393278790
 24
219.1146663817334
 34
0.0000000000000000
 50
90.00000000000000
100
AcDbRotatedDimension
1001
ACAD
1000
DSTYLE
1002
{
1070
   173
1070
     1
1070
     6
1000
_OPEN
1070
     7
1000
_OPEN
1070
    41
1040
2.000000
1002
}
  0
DIMENSION
  5
34E
100
AcDbEntity
  8
MAIN0
  6
CONTINUOUS
 62
3
100
AcDbDimension
  2
*D27
 10
166.5682393278790
 20
230.6146663817334
 30
0.0000000000000000
 11
166.0682393278790
 21
235.3646663817324
 31
0.0000000000000000
 70
32
  3
MAIN001
100
AcDbAlignedDimension
 13
148.5682393278790
 23
240.1146663817314
 33
0.0000000000000000
 14
151.1521535813004
 24
230.6146663817334
 34
0.0000000000000000
 50
90.00000000000000
100
AcDbRotatedDimension
1001
ACAD
1000
DSTYLE
1002
{
1070
   173
1070
     1
1070
     6
1000
_OPEN
1070
     7
1000
_OPEN
1070
    41
1040
2.000000
1002
}
  0
INSERT
  5
356
100
AcDbEntity
  8
MAIN0
  6
CONTINUOUS
 62
3
100
AcDbBlockReference
  2
D28
 10
159.7496894108191
 20
198.1146663817336
 30
0.0000000000000000
 50
0.0000000000000000
  0
LINE
  5
357
100
AcDbEntity
  8
MAIN0
  6
CENTER
 62
12
100
AcDbLine
 10
36.74711878024078
 20
198.1146663817336
 30
0.0000000000000000
 11
159.2496894108191
 21
198.1146663817336
 31
0.0000000000000000
  0
MTEXT
  5
358
100
AcDbEntity
  8
MAIN0
  6
CONTINUOUS
 62
3
100
AcDbMText
 10
152.3682395186139
 20
280.6146663817336
 30
0.0000000000000000
 40
3.099999904632568
 41
0.0000000000000000
 71
     1
 72
     1
  1
{\H0.70x;{MIN 1}}
 11
1.000000000000000
 21
0.0000000000000000
 31
0.0000000000000000
  7
STANDARD
  0
LINE
  5
359
100
AcDbEntity
  8
MAIN0
  6
CONTINUOUS
 62
3
100
AcDbLine
 10
52.56823932789193
 20
191.5905194788357
 30
0.0000000000000000
 11
52.56823932787927
 21
195.6146663817336
 31
0.0000000000000000
  0
LINE
  5
35A
100
AcDbEntity
  8
MAIN0
  6
CONTINUOUS
 62
3
100
AcDbLine
 10
47.56823932788325
 20
187.2367981781431
 30
0.0000000000000000
 11
47.56823932787860
 21
201.1114674281388
 31
0.0000000000000000
  0
DIMENSION
  5
363
100
AcDbEntity
  8
MAIN0
  6
CONTINUOUS
 62
3
100
AcDbDimension
  2
*D29
 10
31.55744956553949
 20
208.1146663817336
 30
0.0000000000000000
 11
31.05744956553949
 21
198.1146663817336
 31
0.0000000000000000
 70
32
  1
\A1;\U+220520H7
  3
MAIN001
100
AcDbAlignedDimension
 13
41.56823932787896
 23
188.1146663817336
 33
0.0000000000000000
 14
41.56823932787894
 24
208.1146663817336
 34
0.0000000000000000
 50
90.00000000000000
100
AcDbRotatedDimension
1001
ACAD
1000
DSTYLE
1002
{
1070
   173
1070
     1
1070
     6
1000
_OPEN
1070
     7
1000
_OPEN
1070
    41
1040
2.000000
1002
}
  0
DIMENSION
  5
36D
100
AcDbEntity
  8
MAIN0
  6
CONTINUOUS
 62
3
100
AcDbDimension
  2
*D30
 10
46.56823932787894
 20
218.1250152608776
 30
0.0000000000000000
 11
44.06823932787894
 21
218.6250152608776
 31
0.0000000000000000
 70
32
  3
MAIN001
100
AcDbAlignedDimension
 13
41.56823932787894
 23
124.1146663817336
 33
0.0000000000000000
 14
46.56823932787894
 24
208.1146663817336
 34
0.0000000000000000
100
AcDbRotatedDimension
1001
ACAD
1000
DSTYLE
1002
{
1070
   173
1070
     1
1070
     6
1000
_OPEN
1070
     7
1000
_OPEN
1070
    41
1040
2.000000
1070
   287
1070
     0
1002
}
  0
LINE
  5
36E
100
AcDbEntity
  8
MAIN0
  6
CONTINUOUS
 62
3
100
AcDbLine
 10
118.6677929111702
 20
143.0646663817337
 30
0.0000000000000000
 11
127.0682393278789
 21
157.6146663817330
 31
0.0000000000000000
  0
DIMENSION
  5
377
100
AcDbEntity
  8
MAIN0
  6
CONTINUOUS
 62
3
100
AcDbDimension
  2
*D31
 10
86.56823932787900
 20
112.4950966766263
 30
0.0000000000000000
 11
71.56823932787897
 21
112.9950966766263
 31
0.0000000000000000
 70
32
  3
MAIN001
100
AcDbAlignedDimension
 13
56.56823932787894
 23
122.6146663817339
 33
0.0000000000000000
 14
86.56823932787900
 24
122.6146663817336
 34
0.0000000000000000
100
AcDbRotatedDimension
1001
ACAD
1000
DSTYLE
1002
{
1070
   173
1070
     1
1070
     6
1000
_OPEN
1070
     7
1000
_OPEN
1070
    41
1040
2.000000
1002
}
  0
DIMENSION
  5
37E
100
AcDbEntity
  8
MAIN0
  6
CONTINUOUS
 62
3
100
AcDbDimension
  2
*D32
 10
101.5682393278790
 20
107.8426050900655
 30
0.0000000000000000
 11
79.06823932787864
 21
108.3426050900655
 31
0.0000000000000000
 70
32
  3
MAIN001
100
AcDbAlignedDimension
 13
56.56823932787826
 23
87.61466638173388
 33
0.0000000000000000
 14
101.5682393278790
 24
142.6146663817557
 34
0.0000000000000000
100
AcDbRotatedDimension
1001
ACAD
1000
DSTYLE
1002
{
1070
   173
1070
     1
1070
     6
1000
_OPEN
1070
     7
1000
_OPEN
1070
    41
1040
2.000000
1002
}
  0
SPLINE
  5
37F
100
AcDbEntity
  8
MAIN0
  6
CONTINUOUS
 62
3
100
AcDbSpline
210
0.0000000000000000
220
0.0000000000000000
230
1.000000000000000
 70
     8
 71
     3
 72
    25
 73
    21
 74
     0
 42
1.000000000000000e-007
 43
1.000000000000000e-007
 12
1.001486648104972
 22
-0.02718898325386476
 32
0.0000000000000000
 13
-0.1118434323508417
 23
-1.006028875326123
 33
0.0000000000000000
 40
0.0000000000000000
 40
0.0000000000000000
 40
0.0000000000000000
 40
0.0000000000000000
 40
3.077223783471483
 40
7.823277788828916
 40
14.99187384704435
 40
17.80152054915676
 40
28.48682913022951
 40
31.76575160615726
 40
34.75512144696209
 40
38.39737102608586
 40
50.33060170272377
 40
62.64811070444779
 40
72.63968963002748
 40
75.12187953610260
 40
77.80175187432884
 40
86.50481907861290
 40
96.27162252669505
 40
104.0234921039590
 40
112.9235314836773
 40
122.4698188344178
 40
122.4698188344178
 40
122.4698188344178
 40
122.4698188344178
 10
41.56823932787894
 20
186.3185409281960
 30
0.0000000000000000
 10
42.59550550533820
 20
186.2906520662236
 30
0.0000000000000000
 10
45.20714158864766
 20
186.2197497432933
 30
0.0000000000000000
 10
50.14372739413138
 20
188.0552512936728
 30
0.0000000000000000
 10
52.80109002426897
 20
192.6910317504578
 30
0.0000000000000000
 10
59.53854399267854
 20
194.8456146199829
 30
0.0000000000000000
 10
65.10198043849364
 20
194.4681981829185
 30
0.0000000000000000
 10
70.93209195636621
 20
193.0706240180317
 30
0.0000000000000000
 10
72.48751854868122
 20
189.7570008070784
 30
0.0000000000000000
 10
79.10163005225203
 20
188.6092943469387
 30
0.0000000000000000
 10
88.21436421470838
 20
190.5074385661580
 30
0.0000000000000000
 10
99.20915622351255
 20
185.5553171302295
 30
0.0000000000000000
 10
107.2899797986688
 20
185.4725692409005
 30
0.0000000000000000
 10
112.4248504936982
 20
183.6557644055431
 30
0.0000000000000000
 10
113.6754330940330
 20
178.8005938061556
 30
0.0000000000000000
 10
112.2384579558225
 20
171.3012436323370
 30
0.0000000000000000
 10
104.4243305767654
 20
166.3913430955767
 30
0.0000000000000000
 10
98.14272674255346
 20
160.3199984632298
 30
0.0000000000000000
 10
93.26219865435134
 20
152.7517924022493
 30
0.0000000000000000
 10
92.57449848908479
 20
146.5659466240688
 30
0.0000000000000000
 10
92.21860197458004
 20
143.3646663817336
 30
0.0000000000000000
  0
SPLINE
  5
380
100
AcDbEntity
  8
MAIN0
  6
CONTINUOUS
 62
3
100
AcDbSpline
210
0.0000000000000000
220
0.0000000000000000
230
1.000000000000000
 70
     8
 71
     3
 72
    25
 73
    21
 74
     0
 42
1.000000000000000e-007
 43
1.000000000000000e-007
 12
-0.01907710855269329
 22
-1.008221202541677
 32
0.0000000000000000
 13
-1.001876945855322
 23
0.03501657069716657
 33
0.0000000000000000
 40
0.0000000000000000
 40
0.0000000000000000
 40
0.0000000000000000
 40
0.0000000000000000
 40
6.280472552968985
 40
10.94837211594216
 40
18.22741905331108
 40
25.63908637862332
 40
31.83262736930807
 40
36.34435078288506
 40
43.94813926351760
 40
49.22097754134886
 40
57.03338822741056
 40
63.93290319606302
 40
81.88514025708673
 40
87.46847962162934
 40
91.37808342078399
 40
93.72547769767463
 40
106.6143194499703
 40
116.4066016428650
 40
120.0966777760703
 40
123.0807253889720
 40
123.0807253889720
 40
123.0807253889720
 40
123.0807253889720
 10
126.9744850702542
 20
252.8646663817336
 30
0.0000000000000000
 10
126.9345473180358
 20
250.7539645184388
 30
0.0000000000000000
 10
126.8649262235922
 20
247.0745042182358
 30
0.0000000000000000
 10
124.2289055558444
 20
241.3641439107149
 30
0.0000000000000000
 10
119.0160397557961
 20
237.4658687824989
 30
0.0000000000000000
 10
117.0467935628349
 20
229.3940754143169
 30
0.0000000000000000
 10
122.0393760845884
 20
225.0724050063963
 30
0.0000000000000000
 10
121.5166802950524
 20
217.7628427883365
 30
0.0000000000000000
 10
114.3426266218028
 20
217.1261460813807
 30
0.0000000000000000
 10
110.3577973161251
 20
210.7210072860547
 30
0.0000000000000000
 10
102.5921311860643
 20
212.0730737179829
 30
0.0000000000000000
 10
93.94697002583995
 20
204.3370247627779
 30
0.0000000000000000
 10
83.35344133833621
 20
206.3456745335244
 30
0.0000000000000000
 10
73.25424302719522
 20
207.4179602550431
 30
0.0000000000000000
 10
70.97352752139958
 20
203.6099636197758
 30
0.0000000000000000
 10
64.92715769428990
 20
201.4270231489486
 30
0.0000000000000000
 10
55.05696485214656
 20
200.6296647931035
 30
0.0000000000000000
 10
50.09708928151046
 20
209.0528819281291
 30
0.0000000000000000
 10
44.79367240244933
 20
211.0060707200090
 30
0.0000000000000000
 10
42.56478883077924
 20
211.0839723620081
 30
0.0000000000000000
 10
41.56823932787894
 20
211.1188027334084
 30
0.0000000000000000
  0
LINE
  5
381
100
AcDbEntity
  8
MAIN0
  6
HIDDEN
 62
3
100
AcDbLine
 10
66.16823932787874
 20
137.6146663817333
 30
0.0000000000000000
 11
66.16823932787898
 21
132.0146663817334
 31
0.0000000000000000
  0
DIMENSION
  5
38A
100
AcDbEntity
  8
MAIN0
  6
CONTINUOUS
 62
3
100
AcDbDimension
  2
*D33
 10
126.5682393278790
 20
192.8200179179022
 30
0.0000000000000000
 11
111.8547972018273
 21
193.3200179179022
 31
0.0000000000000000
 70
160
  1
\A1;MIN4.5
  3
MAIN001
100
AcDbAlignedDimension
 13
122.0682393278790
 23
194.7863813894680
 33
0.0000000000000000
 14
126.5682393278790
 24
178.7357801817332
 34
0.0000000000000000
100
AcDbRotatedDimension
1001
ACAD
1000
DSTYLE
1002
{
1070
   173
1070
     1
1070
     6
1000
_OPEN
1070
     7
1000
_OPEN
1070
    41
1040
2.000000
1070
   287
1070
     0
1002
}
  0
DIMENSION
  5
393
100
AcDbEntity
  8
MAIN0
  6
CONTINUOUS
 62
3
100
AcDbDimension
  2
*D34
 10
126.5682393278791
 20
171.5188283789944
 30
0.0000000000000000
 11
101.7620275922295
 21
172.0188283789944
 31
0.0000000000000000
 70
160
  1
\A1;14
  3
MAIN001
100
AcDbAlignedDimension
 13
112.0682393278790
 23
169.2146663817331
 33
0.0000000000000000
 14
126.5682393278791
 24
161.1146663817330
 34
0.0000000000000000
100
AcDbRotatedDimension
1001
ACAD
1000
DSTYLE
1002
{
1070
   173
1070
     1
1070
     6
1000
_OPEN
1070
     7
1000
_OPEN
1070
    41
1040
2.000000
1002
}
  0
LINE
  5
394
100
AcDbEntity
  8
MAIN0
  6
PHANTOM
 62
3
100
AcDbLine
 10
93.56823932787893
 20
144.3646663817336
 30
0.0000000000000000
 11
108.5682393278790
 21
144.3646663817336
 31
0.0000000000000000
  0
LINE
  5
395
100
AcDbEntity
  8
MAIN0
  6
PHANTOM
 62
3
100
AcDbLine
 10
93.56823932787893
 20
143.3646663817336
 30
0.0000000000000000
 11
93.56823932787893
 21
144.3646663817337
 31
0.0000000000000000
  0
LEADER
  5
396
100
AcDbEntity
  8
MAIN0
  6
CONTINUOUS
 62
3
100
AcDbLeader
  3
MAIN001
 73
     0
 75
     1
 40
3.099999904632568
 41
10.39900000596046
 76
     3
 10
96.30111432787894
 20
147.4646663817336
 30
0.0000000000000000
 10
86.51283202954326
 20
152.6712786402200
 30
0.0000000000000000
 10
84.72583208220397
 20
152.6712786402200
 30
0.0000000000000000
340
397
213
0.0000000000000000
223
-0.5000000000000000
233
0.0000000000000000
1001
ACAD
1000
DSTYLE
1002
{
1070
   147
1040
0.0
1070
    77
1070
     1
1070
   173
1070
     1
1070
     6
1000
_OPEN
1070
     7
1000
_OPEN
1002
}
  0
MTEXT
  5
397
102
{ACAD_REACTORS
330
396
102
}
100
AcDbEntity
  8
MAIN0
  6
CONTINUOUS
 62
3
100
AcDbMText
 10
74.32683207624351
 20
156.2712785448525
 30
0.0000000000000000
 40
3.099999904632568
 41
0.0000000000000000
 71
     1
 72
     1
  1
{\H0.70x;{Rc1/8}}
 11
1.000000000000000
 21
0.0000000000000000
 31
0.0000000000000000
  7
STANDARD
  0
LINE
  5
398
100
AcDbEntity
  8
MAIN0
  6
PHANTOM
 62
12
100
AcDbLine
 10
123.8758878199058
 20
147.9107660003018
 30
0.0000000000000000
 11
102.3235902442774
 21
160.3539908072511
 31
0.0000000000000000
  0
LINE
  5
399
100
AcDbEntity
  8
MAIN0
  6
PHANTOM
 62
3
100
AcDbLine
 10
108.5682393278790
 20
143.5146663817337
 30
0.0000000000000000
 11
108.5682393278790
 21
144.3646663817336
 31
0.0000000000000000
  0
LINE
  5
39A
100
AcDbEntity
  8
MAIN0
  6
CENTER
 62
3
100
AcDbLine
 10
36.44967642141009
 20
164.1146663818651
 30
0.0000000000000000
 11
52.18244733488982
 21
164.1146663818596
 31
0.0000000000000000
  0
LINE
  5
39B
100
AcDbEntity
  8
MAIN0
  6
CENTER
 62
3
100
AcDbLine
 10
36.44967642141009
 20
135.1146663818656
 30
0.0000000000000000
 11
52.18244733488982
 21
135.1146663818602
 31
0.0000000000000000
  0
DIMENSION
  5
3A4
100
AcDbEntity
  8
MAIN0
  6
CONTINUOUS
 62
3
100
AcDbDimension
  2
*D35
 10
32.35505463620464
 20
171.1146663818668
 30
0.0000000000000000
 11
31.85505463620464
 21
164.1146663818668
 31
0.0000000000000000
 70
32
  1
\A1;\U+220514
  3
MAIN001
100
AcDbAlignedDimension
 13
41.56823932787894
 23
157.1146663818668
 33
0.0000000000000000
 14
41.56823932787894
 24
171.1146663818668
 34
0.0000000000000000
 50
90.00000000000000
100
AcDbRotatedDimension
1001
ACAD
1000
DSTYLE
1002
{
1070
   173
1070
     1
1070
     6
1000
_OPEN
1070
     7
1000
_OPEN
1070
    41
1040
2.000000
1002
}
  0
LINE
  5
3A5
100
AcDbEntity
  8
MAIN0
  6
HIDDEN
 62
3
100
AcDbLine
 10
42.06823932787894
 20
164.1146663818594
 30
0.0000000000000000
 11
42.06823932788380
 21
171.1146663818594
 31
0.0000000000000000
  0
LINE
  5
3A6
100
AcDbEntity
  8
MAIN0
  6
HIDDEN
 62
3
100
AcDbLine
 10
41.56823932788379
 20
171.1146663818598
 30
0.0000000000000000
 11
42.06823932788379
 21
171.1146663818594
 31
0.0000000000000000
  0
DIMENSION
  5
3AF
100
AcDbEntity
  8
MAIN0
  6
CONTINUOUS
 62
3
100
AcDbDimension
  2
*D36
 10
41.56823932787899
 20
117.4922192081075
 30
0.0000000000000000
 11
61.94579750011765
 21
117.9922192081075
 31
0.0000000000000000
 70
160
  3
MAIN001
100
AcDbAlignedDimension
 13
71.56823932787920
 23
118.3911433966678
 33
0.0000000000000000
 14
41.56823932787894
 24
124.1146663817336
 34
0.0000000000000000
100
AcDbRotatedDimension
1001
ACAD
1000
DSTYLE
1002
{
1070
   173
1070
     1
1070
     6
1000
_OPEN
1070
     7
1000
_OPEN
1070
    41
1040
2.000000
1002
}
  0
DIMENSION
  5
3B8
100
AcDbEntity
  8
MAIN0
  6
CONTINUOUS
 62
3
100
AcDbDimension
  2
*D37
 10
41.56823932787894
 20
103.0177980310444
 30
0.0000000000000000
 11
84.31823932787896
 21
103.5177980310444
 31
0.0000000000000000
 70
32
  3
MAIN001
100
AcDbAlignedDimension
 13
127.0682393278790
 23
144.3646663817337
 33
0.0000000000000000
 14
41.56823932787894
 24
124.1146663817336
 34
0.0000000000000000
100
AcDbRotatedDimension
1001
ACAD
1000
DSTYLE
1002
{
1070
   173
1070
     1
1070
     6
1000
_OPEN
1070
     7
1000
_OPEN
1070
    41
1040
2.000000
1002
}
  0
DIMENSION
  5
3C1
100
AcDbEntity
  8
MAIN0
  6
CONTINUOUS
 62
3
100
AcDbDimension
  2
*D38
 10
41.56823932787894
 20
112.4950966766263
 30
0.0000000000000000
 11
49.06823932787894
 21
112.9950966766263
 31
0.0000000000000000
 70
32
  3
MAIN001
100
AcDbAlignedDimension
 13
56.56823932787894
 23
122.6146663817339
 33
0.0000000000000000
 14
41.56823932787894
 24
124.1146663817336
 34
0.0000000000000000
100
AcDbRotatedDimension
1001
ACAD
1000
DSTYLE
1002
{
1070
   173
1070
     1
1070
     6
1000
_OPEN
1070
     7
1000
_OPEN
1070
    41
1040
2.000000
1002
}
  0
DIMENSION
  5
3CB
100
AcDbEntity
  8
MAIN0
  6
CONTINUOUS
 62
3
100
AcDbDimension
  2
*D39
 10
126.5682393278791
 20
153.0241864221022
 30
0.0000000000000000
 11
131.8564628307306
 21
153.5241864221022
 31
0.0000000000000000
 70
160
  3
MAIN001
100
AcDbAlignedDimension
 13
127.0682393278790
 23
144.3646663817337
 33
0.0000000000000000
 14
126.5682393278791
 24
161.1146663817330
 34
0.0000000000000000
100
AcDbRotatedDimension
1001
ACAD
1000
DSTYLE
1002
{
1070
   173
1070
     1
1070
     6
1000
_OPEN
1070
     7
1000
_OPEN
1070
    41
1040
2.000000
1070
   287
1070
     0
1002
}
  0
DIMENSION
  5
3D5
100
AcDbEntity
  8
MAIN0
  6
CONTINUOUS
 62
3
100
AcDbDimension
  2
*D40
 10
127.0682393278790
 20
148.3422184907273
 30
0.0000000000000000
 11
130.9200641654352
 21
148.8422184907273
 31
0.0000000000000000
 70
160
  3
MAIN001
100
AcDbAlignedDimension
 13
126.0682393278791
 23
158.1146663817328
 33
0.0000000000000000
 14
127.0682393278790
 24
144.3646663817337
 34
0.0000000000000000
100
AcDbRotatedDimension
1001
ACAD
1000
DSTYLE
1002
{
1070
   173
1070
     1
1070
     6
1000
_OPEN
1070
     7
1000
_OPEN
1070
    41
1040
2.000000
1070
   287
1070
     0
1002
}
  0
DIMENSION
  5
3DE
100
AcDbEntity
  8
MAIN0
  6
CONTINUOUS
 62
3
100
AcDbDimension
  2
*D41
 10
166.5682393278790
 20
198.1146663817336
 30
0.0000000000000000
 11
166.0682393278790
 21
177.8646663817333
 31
0.0000000000000000
 70
32
  3
MAIN001
100
AcDbAlignedDimension
 13
127.0682393278790
 23
157.6146663817330
 33
0.0000000000000000
 14
159.2496894108191
 24
198.1146663817336
 34
0.0000000000000000
 50
90.00000000000000
100
AcDbRotatedDimension
1001
ACAD
1000
DSTYLE
1002
{
1070
   173
1070
     1
1070
     6
1000
_OPEN
1070
     7
1000
_OPEN
1070
    41
1040
2.000000
1002
}
  0
DIMENSION
  5
3E7
100
AcDbEntity
  8
MAIN0
  6
CONTINUOUS
 62
3
100
AcDbDimension
  2
*D42
 10
194.0682393278790
 20
143.0646663817337
 30
0.0000000000000000
 11
193.5682393278790
 21
194.9396662953069
 31
0.0000000000000000
 70
32
  1
\A1;\U+2205110.1\H0.903226x;\S 0^ -0.1;
  3
MAIN001
100
AcDbAlignedDimension
 13
118.5182393278789
 23
253.1646663817336
 33
0.0000000000000000
 14
118.5682393278790
 24
143.0646663817337
 34
0.0000000000000000
 50
90.00000000000000
100
AcDbRotatedDimension
1001
ACAD
1000
DSTYLE
1002
{
1070
   173
1070
     1
1070
     6
1000
_OPEN
1070
     7
1000
_OPEN
1070
    41
1040
2.000000
1070
   272
1070
     1
1070
    47
1040
0.000000
1070
    48
1040
0.100000
1070
    71
1070
     1
1002
}
  0
INSERT
  5
3EF
100
AcDbEntity
  8
MAIN0
  6
CONTINUOUS
 62
3
100
AcDbBlockReference
  2
D43
 10
159.2496894108191
 20
198.1146663817336
 30
0.0000000000000000
 50
0.0000000000000000
  0
DIMENSION
  5
3F9
100
AcDbEntity
  8
MAIN0
  6
CONTINUOUS
 62
3
100
AcDbDimension
  2
*D44
 10
144.5682393278789
 20
242.5214856104536
 30
0.0000000000000000
 11
154.7207990128943
 21
243.0214856104536
 31
0.0000000000000000
 70
160
  3
MAIN001
100
AcDbAlignedDimension
 13
148.5682393278790
 23
246.1146663817312
 33
0.0000000000000000
 14
144.5682393278789
 24
246.1146663817319
 34
0.0000000000000000
100
AcDbRotatedDimension
1001
ACAD
1000
DSTYLE
1002
{
1070
   173
1070
     1
1070
     6
1000
_OPEN
1070
     7
1000
_OPEN
1070
    41
1040
2.000000
1070
   287
1070
     0
1002
}
  0
DIMENSION
  5
402
100
AcDbEntity
  8
MAIN0
  6
CONTINUOUS
 62
3
100
AcDbDimension
  2
*D45
 10
41.56823932787894
 20
280.6146663817336
 30
0.0000000000000000
 11
93.06823932787899
 21
281.1146663817336
 31
0.0000000000000000
 70
32
  3
MAIN001
100
AcDbAlignedDimension
 13
144.5682393278790
 23
251.8646663817336
 33
0.0000000000000000
 14
41.56823932787894
 24
272.1146663817336
 34
0.0000000000000000
100
AcDbRotatedDimension
1001
ACAD
1000
DSTYLE
1002
{
1070
   173
1070
     1
1070
     6
1000
_OPEN
1070
     7
1000
_OPEN
1070
    41
1040
2.000000
1002
}
  0
DIMENSION
  5
40C
100
AcDbEntity
  8
MAIN0
  6
CONTINUOUS
 62
3
100
AcDbDimension
  2
*D46
 10
144.5682393278790
 20
280.6146663817336
 30
0.0000000000000000
 11
157.5682393278790
 21
281.1146663817336
 31
0.0000000000000000
 70
160
  1
\A1;MAX 7
  3
MAIN001
100
AcDbAlignedDimension
 13
151.5682393278790
 23
251.6814055098466
 33
0.0000000000000000
 14
144.5682393278790
 24
251.8646663817336
 34
0.0000000000000000
100
AcDbRotatedDimension
1001
ACAD
1000
DSTYLE
1002
{
1070
   173
1070
     1
1070
     6
1000
_OPEN
1070
     7
1000
_OPEN
1070
    41
1040
2.000000
1002
}
  0
DIMENSION
  5
413
100
AcDbEntity
  8
MAIN0
  6
CONTINUOUS
 62
3
100
AcDbDimension
  2
*D47
 10
148.5682393278790
 20
210.2873497851465
 30
0.0000000000000000
 11
141.5682393278790
 21
210.7873497851465
 31
0.0000000000000000
 70
32
  3
MAIN001
100
AcDbAlignedDimension
 13
134.5682393278791
 23
199.6146663817336
 33
0.0000000000000000
 14
148.5682393278790
 24
199.6146663817331
 34
0.0000000000000000
100
AcDbRotatedDimension
1001
ACAD
1000
DSTYLE
1002
{
1070
   173
1070
     1
1070
     6
1000
_OPEN
1070
     7
1000
_OPEN
1070
    41
1040
2.000000
1002
}
  0
LINE
  5
414
100
AcDbEntity
  8
MAIN0
  6
CENTER
 62
3
100
AcDbLine
 10
50.06823932787927
 20
119.9006761875673
 30
0.0000000000000000
 11
50.06823932787927
 21
205.7454503486270
 31
0.0000000000000000
  0
LEADER
  5
415
100
AcDbEntity
  8
MAIN0
  6
CONTINUOUS
 62
3
100
AcDbLeader
  3
MAIN001
 73
     0
 75
     1
 40
3.099999904632568
 41
33.69900001788139
 76
     3
 10
131.5682393278790
 20
213.1146663817336
 30
0.0000000000000000
 10
106.5682393278790
 20
275.6146663817336
 30
0.0000000000000000
 10
104.7812393805397
 20
275.6146663817336
 30
0.0000000000000000
340
416
213
0.0000000000000000
223
-0.5000000000000000
233
0.0000000000000000
1001
ACAD
1000
DSTYLE
1002
{
1070
   147
1040
0.0
1070
    77
1070
     1
1070
   173
1070
     1
1070
     6
1000
_NONE
1070
     7
1000
_NONE
1002
}
  0
MTEXT
  5
416
102
{ACAD_REACTORS
330
415
102
}
100
AcDbEntity
  8
MAIN0
  6
CONTINUOUS
 62
3
100
AcDbMText
 10
71.08223936265836
 20
279.2146662863662
 30
0.0000000000000000
 40
3.099999904632568
 41
0.0000000000000000
 71
     1
 72
     1
  1
{\H0.70x;{簡易カバー\P使用時は、専用ロケータにて\Pシールが必要です。}}
 11
1.000000000000000
 21
0.0000000000000000
 31
0.0000000000000000
  7
KNJYOKO
  0
LINE
  5
417
100
AcDbEntity
  8
MAIN0
  6
CONTINUOUS
 62
3
100
AcDbLine
 10
126.5682393278791
 20
161.1146663817330
 30
0.0000000000000000
 11
126.5682393278790
 21
175.0476791817332
 31
0.0000000000000000
  0
LINE
  5
418
100
AcDbEntity
  8
MAIN0
  6
CONTINUOUS
 62
3
100
AcDbLine
 10
126.5682393278790
 20
179.1816535817332
 30
0.0000000000000000
 11
126.5682393278790
 21
223.8053192224192
 31
0.0000000000000000
  0
LINE
  5
419
100
AcDbEntity
  8
MAIN0
  6
CONTINUOUS
 62
3
100
AcDbLine
 10
109.0182393278790
 20
143.0646663817337
 30
0.0000000000000000
 11
118.5682393278790
 21
143.0646663817337
 31
0.0000000000000000
  0
LINE
  5
41A
100
AcDbEntity
  8
MAIN0
  6
PHANTOM
 62
12
100
AcDbLine
 10
127.0682393278790
 20
144.3646663817337
 30
0.0000000000000000
 11
127.0682393278790
 21
157.6146663817330
 31
0.0000000000000000
  0
LINE
  5
41B
100
AcDbEntity
  8
MAIN0
  6
CONTINUOUS
 62
3
100
AcDbLine
 10
127.0682393278790
 20
157.6146663817330
 30
0.0000000000000000
 11
127.0682393278790
 21
158.1146663817330
 31
0.0000000000000000
  0
LINE
  5
41C
100
AcDbEntity
  8
MAIN0
  6
CONTINUOUS
 62
3
100
AcDbLine
 10
148.5682393278790
 20
224.7146663817335
 30
0.0000000000000000
 11
148.1682393278790
 21
225.1146663817334
 31
0.0000000000000000
  0
LINE
  5
41D
100
AcDbEntity
  8
MAIN0
  6
CONTINUOUS
 62
3
100
AcDbLine
 10
148.1682393278790
 20
225.1146663817334
 30
0.0000000000000000
 11
137.5682393278790
 21
225.1146663817334
 31
0.0000000000000000
  0
LINE
  5
41E
100
AcDbEntity
  8
MAIN0
  6
CONTINUOUS
 62
3
100
AcDbLine
 10
137.5682393278790
 20
225.1146663817334
 30
0.0000000000000000
 11
137.5682393278790
 21
236.1146663817334
 31
0.0000000000000000
  0
LINE
  5
41F
100
AcDbEntity
  8
MAIN0
  6
CONTINUOUS
 62
3
100
AcDbLine
 10
137.5682393278790
 20
236.1146663817334
 30
0.0000000000000000
 11
148.1682393278790
 21
236.1146663817334
 31
0.0000000000000000
  0
LINE
  5
420
100
AcDbEntity
  8
MAIN0
  6
CONTINUOUS
 62
3
100
AcDbLine
 10
148.1682393278790
 20
236.1146663817335
 30
0.0000000000000000
 11
148.5682393278790
 21
236.5146663817334
 31
0.0000000000000000
  0
LINE
  5
421
100
AcDbEntity
  8
MAIN0
  6
CONTINUOUS
 62
3
100
AcDbLine
 10
137.5682393278790
 20
227.3146663817335
 30
0.0000000000000000
 11
131.9682393278791
 21
227.3146663817335
 31
0.0000000000000000
  0
LINE
  5
422
100
AcDbEntity
  8
MAIN0
  6
CONTINUOUS
 62
3
100
AcDbLine
 10
131.9682393278791
 20
227.3146663817335
 30
0.0000000000000000
 11
131.5682393278790
 21
226.9146663817334
 31
0.0000000000000000
  0
LINE
  5
423
100
AcDbEntity
  8
MAIN0
  6
CONTINUOUS
 62
3
100
AcDbLine
 10
137.5682393278790
 20
233.9146663817334
 30
0.0000000000000000
 11
131.9682393278791
 21
233.9146663817334
 31
0.0000000000000000
  0
LINE
  5
424
100
AcDbEntity
  8
MAIN0
  6
CONTINUOUS
 62
3
100
AcDbLine
 10
131.9682393278791
 20
233.9146663817334
 30
0.0000000000000000
 11
131.5682393278790
 21
234.3146663817335
 31
0.0000000000000000
  0
LINE
  5
425
100
AcDbEntity
  8
MAIN0
  6
CONTINUOUS
 62
3
100
AcDbLine
 10
137.5682393278789
 20
225.6230260552672
 30
0.0000000000000000
 11
142.9682393278789
 21
225.6230260552672
 31
0.0000000000000000
  0
LINE
  5
426
100
AcDbEntity
  8
MAIN0
  6
CONTINUOUS
 62
3
100
AcDbLine
 10
142.9682393278789
 20
225.6230260552672
 30
0.0000000000000000
 11
143.5682393278789
 21
226.6622565398085
 31
0.0000000000000000
  0
LINE
  5
427
100
AcDbEntity
  8
MAIN0
  6
CONTINUOUS
 62
3
100
AcDbLine
 10
143.5682393278789
 20
226.6622565398085
 30
0.0000000000000000
 11
143.5682393278789
 21
234.5837955707258
 31
0.0000000000000000
  0
LINE
  5
428
100
AcDbEntity
  8
MAIN0
  6
CONTINUOUS
 62
3
100
AcDbLine
 10
143.5682393278789
 20
234.5837955707258
 30
0.0000000000000000
 11
142.9682393278789
 21
235.6230260552672
 31
0.0000000000000000
  0
LINE
  5
429
100
AcDbEntity
  8
MAIN0
  6
CONTINUOUS
 62
3
100
AcDbLine
 10
142.9682393278789
 20
235.6230260552672
 30
0.0000000000000000
 11
137.5682393278789
 21
235.6230260552672
 31
0.0000000000000000
  0
LINE
  5
42A
100
AcDbEntity
  8
MAIN0
  6
CONTINUOUS
 62
3
100
AcDbLine
 10
142.9682393278789
 20
225.6230260552672
 30
0.0000000000000000
 11
142.9682393278789
 21
235.6230260552672
 31
0.0000000000000000
  0
LINE
  5
42B
100
AcDbEntity
  8
MAIN0
  6
CONTINUOUS
 62
3
100
AcDbLine
 10
137.5682393278789
 20
227.6230260552672
 30
0.0000000000000000
 11
121.5682393278789
 21
227.6230260552672
 31
0.0000000000000000
  0
LINE
  5
42C
100
AcDbEntity
  8
MAIN0
  6
CONTINUOUS
 62
3
100
AcDbLine
 10
121.5682393278789
 20
227.6230260552672
 30
0.0000000000000000
 11
121.5682393278789
 21
233.6230260552672
 31
0.0000000000000000
  0
LINE
  5
42D
100
AcDbEntity
  8
MAIN0
  6
CONTINUOUS
 62
3
100
AcDbLine
 10
121.5682393278789
 20
233.6230260552672
 30
0.0000000000000000
 11
137.5682393278789
 21
233.6230260552672
 31
0.0000000000000000
  0
LINE
  5
42E
100
AcDbEntity
  8
MAIN0
  6
CONTINUOUS
 62
3
100
AcDbLine
 10
137.5682393278789
 20
228.1642920552672
 30
0.0000000000000000
 11
121.5682393278789
 21
228.1642920552672
 31
0.0000000000000000
  0
LINE
  5
42F
100
AcDbEntity
  8
MAIN0
  6
CONTINUOUS
 62
3
100
AcDbLine
 10
137.5682393278789
 20
233.0817600552672
 30
0.0000000000000000
 11
121.5682393278789
 21
233.0817600552672
 31
0.0000000000000000
  0
LINE
  5
430
100
AcDbEntity
  8
MAIN0
  6
CONTINUOUS
 62
3
100
AcDbLine
 10
52.56823932786352
 20
200.6146663817336
 30
0.0000000000000000
 11
82.96823932787893
 21
200.6146663817336
 31
0.0000000000000000
  0
LINE
  5
431
100
AcDbEntity
  8
MAIN0
  6
CONTINUOUS
 62
3
100
AcDbLine
 10
82.96823932787893
 20
195.6146663817336
 30
0.0000000000000000
 11
52.56823932787927
 21
195.6146663817336
 31
0.0000000000000000
  0
LINE
  5
432
100
AcDbEntity
  8
MAIN0
  6
PHANTOM
 62
3
100
AcDbLine
 10
96.20423932787892
 20
144.3646663817336
 30
0.0000000000000000
 11
96.39798932787893
 21
150.5646663817336
 31
0.0000000000000000
  0
LINE
  5
433
100
AcDbEntity
  8
MAIN0
  6
PHANTOM
 62
3
100
AcDbLine
 10
96.39798932787895
 20
150.5646663817336
 30
0.0000000000000000
 11
105.7384893278789
 21
150.5646663817336
 31
0.0000000000000000
  0
LINE
  5
434
100
AcDbEntity
  8
MAIN0
  6
PHANTOM
 62
3
100
AcDbLine
 10
105.7384893278789
 20
150.5646663817336
 30
0.0000000000000000
 11
105.9322393278789
 21
144.3646663817336
 31
0.0000000000000000
  0
LINE
  5
435
100
AcDbEntity
  8
MAIN0
  6
PHANTOM
 62
3
100
AcDbLine
 10
96.78523932787894
 20
144.3646663817336
 30
0.0000000000000000
 11
96.97898932787894
 21
150.5646663817336
 31
0.0000000000000000
  0
LINE
  5
436
100
AcDbEntity
  8
MAIN0
  6
PHANTOM
 62
3
100
AcDbLine
 10
105.3512393278789
 20
144.3646663817336
 30
0.0000000000000000
 11
105.1574893278789
 21
150.5646663817336
 31
0.0000000000000000
  0
LINE
  5
437
100
AcDbEntity
  8
MAIN0
  6
PHANTOM
 62
3
100
AcDbLine
 10
96.96823932787893
 20
150.5646663817336
 30
0.0000000000000000
 11
96.96823932787893
 21
158.2396022082849
 31
0.0000000000000000
  0
LINE
  5
438
100
AcDbEntity
  8
MAIN0
  6
PHANTOM
 62
3
100
AcDbLine
 10
105.1682393278790
 20
155.2475302779452
 30
0.0000000000000000
 11
105.1682393278790
 21
150.5646663817336
 31
0.0000000000000000
  0
LINE
  5
439
100
AcDbEntity
  8
MAIN0
  6
PHANTOM
 62
3
100
AcDbLine
 10
105.1682393278790
 20
166.5734255766360
 30
0.0000000000000000
 11
105.1682393278790
 21
161.5983832390317
 31
0.0000000000000000
  0
LINE
  5
43A
100
AcDbEntity
  8
MAIN0
  6
PHANTOM
 62
3
100
AcDbLine
 10
126.5682393278790
 20
164.2146663817331
 30
0.0000000000000000
 11
125.7682393278790
 21
165.0146663817331
 31
0.0000000000000000
  0
LINE
  5
43B
100
AcDbEntity
  8
MAIN0
  6
PHANTOM
 62
3
100
AcDbLine
 10
125.7682393278790
 20
165.0146663817331
 30
0.0000000000000000
 11
125.7682393278790
 21
169.2146663817331
 31
0.0000000000000000
  0
LINE
  5
43C
100
AcDbEntity
  8
MAIN0
  6
PHANTOM
 62
3
100
AcDbLine
 10
125.7682393278790
 20
169.2146663817331
 30
0.0000000000000000
 11
126.5682393278790
 21
170.0146663817331
 31
0.0000000000000000
  0
LINE
  5
43D
100
AcDbEntity
  8
MAIN0
  6
PHANTOM
 62
3
100
AcDbLine
 10
126.1682393278791
 20
164.6146663817331
 30
0.0000000000000000
 11
116.0682393278790
 21
164.6146663817331
 31
0.0000000000000000
  0
LINE
  5
43E
100
AcDbEntity
  8
MAIN0
  6
PHANTOM
 62
3
100
AcDbLine
 10
116.0682393278790
 20
164.6146663817331
 30
0.0000000000000000
 11
116.0682393278790
 21
169.6146663817331
 31
0.0000000000000000
  0
LINE
  5
43F
100
AcDbEntity
  8
MAIN0
  6
PHANTOM
 62
3
100
AcDbLine
 10
116.0682393278790
 20
169.6146663817331
 30
0.0000000000000000
 11
126.1682393278791
 21
169.6146663817331
 31
0.0000000000000000
  0
LINE
  5
440
100
AcDbEntity
  8
MAIN0
  6
PHANTOM
 62
3
100
AcDbLine
 10
125.7682393278790
 20
165.0146663817331
 30
0.0000000000000000
 11
112.0682393278790
 21
165.0146663817331
 31
0.0000000000000000
  0
LINE
  5
441
100
AcDbEntity
  8
MAIN0
  6
PHANTOM
 62
3
100
AcDbLine
 10
112.0682393278790
 20
165.0146663817331
 30
0.0000000000000000
 11
112.0682393278790
 21
169.2146663817331
 31
0.0000000000000000
  0
LINE
  5
442
100
AcDbEntity
  8
MAIN0
  6
PHANTOM
 62
3
100
AcDbLine
 10
112.0682393278790
 20
169.2146663817331
 30
0.0000000000000000
 11
125.7682393278790
 21
169.2146663817331
 31
0.0000000000000000
  0
LINE
  5
443
100
AcDbEntity
  8
MAIN0
  6
PHANTOM
 62
3
100
AcDbLine
 10
112.0682393278790
 20
165.0146663817331
 30
0.0000000000000000
 11
110.8558037625808
 21
167.1146663817331
 31
0.0000000000000000
  0
LINE
  5
444
100
AcDbEntity
  8
MAIN0
  6
PHANTOM
 62
3
100
AcDbLine
 10
110.8558037625808
 20
167.1146663817331
 30
0.0000000000000000
 11
112.0682393278791
 21
169.2146663817331
 31
0.0000000000000000
  0
LINE
  5
445
100
AcDbEntity
  8
MAIN0
  6
CONTINUOUS
 62
3
100
AcDbLine
 10
86.56823932787890
 20
142.6146663817336
 30
0.0000000000000000
 11
56.56823932787889
 21
142.6146663817339
 31
0.0000000000000000
  0
LINE
  5
446
100
AcDbEntity
  8
MAIN0
  6
CONTINUOUS
 62
3
100
AcDbLine
 10
86.56823932787870
 20
122.6146663817336
 30
0.0000000000000000
 11
56.56823932787869
 21
122.6146663817339
 31
0.0000000000000000
  0
LINE
  5
447
100
AcDbEntity
  8
MAIN0
  6
CONTINUOUS
 62
3
100
AcDbLine
 10
86.56823932787900
 20
122.6146663817336
 30
0.0000000000000000
 11
86.56823932787920
 21
142.6146663817333
 31
0.0000000000000000
  0
LINE
  5
448
100
AcDbEntity
  8
MAIN0
  6
CENTER
 62
3
100
AcDbLine
 10
71.56823932787916
 20
141.7955875690484
 30
0.0000000000000000
 11
71.56823932787920
 21
118.3911433966678
 31
0.0000000000000000
  0
LINE
  5
449
100
AcDbEntity
  8
MAIN0
  6
HIDDEN
 62
3
100
AcDbLine
 10
77.29073932787897
 20
122.6146663817331
 30
0.0000000000000000
 11
76.99698932787916
 21
132.0146663817334
 31
0.0000000000000000
  0
LINE
  5
44A
100
AcDbEntity
  8
MAIN0
  6
HIDDEN
 62
3
100
AcDbLine
 10
64.98973932787894
 20
122.6146663817342
 30
0.0000000000000000
 11
65.28348932787918
 21
132.0146663817336
 31
0.0000000000000000
  0
LINE
  5
44B
100
AcDbEntity
  8
MAIN0
  6
HIDDEN
 62
3
100
AcDbLine
 10
65.28348932787920
 20
132.0146663817335
 30
0.0000000000000000
 11
77.85298932787927
 21
132.0146663817333
 31
0.0000000000000000
  0
LINE
  5
44C
100
AcDbEntity
  8
MAIN0
  6
CONTINUOUS
 62
3
100
AcDbLine
 10
63.56823932787901
 20
121.6146663817330
 30
0.0000000000000000
 11
79.56823932787901
 21
121.6146663817330
 31
0.0000000000000000
  0
LINE
  5
44D
100
AcDbEntity
  8
MAIN0
  6
CONTINUOUS
 62
3
100
AcDbLine
 10
63.56823932787904
 20
122.6146663817333
 30
0.0000000000000000
 11
63.56823932787904
 21
121.6146663817333
 31
0.0000000000000000
  0
LINE
  5
44E
100
AcDbEntity
  8
MAIN0
  6
CONTINUOUS
 62
3
100
AcDbLine
 10
79.56823932787904
 20
122.6146663817333
 30
0.0000000000000000
 11
79.56823932787904
 21
121.6146663817333
 31
0.0000000000000000
  0
LINE
  5
44F
100
AcDbEntity
  8
MAIN0
  6
CONTINUOUS
 62
3
100
AcDbLine
 10
56.56823932786307
 20
142.6146663817337
 30
0.0000000000000000
 11
86.56823932787921
 21
142.6146663817335
 31
0.0000000000000000
  0
LINE
  5
450
100
AcDbEntity
  8
MAIN0
  6
HIDDEN
 62
3
100
AcDbLine
 10
77.85298932787910
 20
132.0146663817338
 30
0.0000000000000000
 11
78.14673932787883
 21
122.6146663817337
 31
0.0000000000000000
  0
LINE
  5
451
100
AcDbEntity
  8
MAIN0
  6
HIDDEN
 62
3
100
AcDbLine
 10
76.96823932787954
 20
137.6146663817333
 30
0.0000000000000000
 11
76.96823932787933
 21
132.0146663817334
 31
0.0000000000000000
  0
LINE
  5
452
100
AcDbEntity
  8
MAIN0
  6
HIDDEN
 62
3
100
AcDbLine
 10
65.84573932787902
 20
122.6146663817342
 30
0.0000000000000000
 11
66.13948932787926
 21
132.0146663817341
 31
0.0000000000000000
  0
LINE
  5
453
100
AcDbEntity
  8
MAIN0
  6
HIDDEN
 62
3
100
AcDbLine
 10
76.23848932787908
 20
128.8146663817327
 30
0.0000000000000000
 11
76.43223932787910
 21
122.6146663817327
 31
0.0000000000000000
  0
LINE
  5
454
100
AcDbEntity
  8
MAIN0
  6
HIDDEN
 62
3
100
AcDbLine
 10
75.85123932787920
 20
122.6146663817328
 30
0.0000000000000000
 11
75.65748932787921
 21
128.8146663817328
 31
0.0000000000000000
  0
LINE
  5
455
100
AcDbEntity
  8
MAIN0
  6
HIDDEN
 62
3
100
AcDbLine
 10
66.89798932787912
 20
128.8146663817335
 30
0.0000000000000000
 11
76.23848932787914
 21
128.8146663817335
 31
0.0000000000000000
  0
LINE
  5
456
100
AcDbEntity
  8
MAIN0
  6
HIDDEN
 62
3
100
AcDbLine
 10
75.66823932787909
 20
137.6146663817332
 30
0.0000000000000000
 11
75.66823932787911
 21
128.8146663817335
 31
0.0000000000000000
  0
LINE
  5
457
100
AcDbEntity
  8
MAIN0
  6
HIDDEN
 62
3
100
AcDbLine
 10
67.46823932787902
 20
128.8146663817335
 30
0.0000000000000000
 11
67.46823932787902
 21
137.6146663817335
 31
0.0000000000000000
  0
LINE
  5
458
100
AcDbEntity
  8
MAIN0
  6
HIDDEN
 62
3
100
AcDbLine
 10
67.28523932787903
 20
122.6146663817328
 30
0.0000000000000000
 11
67.47898932787901
 21
128.8146663817330
 31
0.0000000000000000
  0
LINE
  5
459
100
AcDbEntity
  8
MAIN0
  6
HIDDEN
 62
3
100
AcDbLine
 10
66.70423932787924
 20
122.6146663817332
 30
0.0000000000000000
 11
66.89798932787922
 21
128.8146663817332
 31
0.0000000000000000
  0
LINE
  5
45A
100
AcDbEntity
  8
MAIN0
  6
CONTINUOUS
 62
3
100
AcDbLine
 10
47.56823932787927
 20
201.1146663817336
 30
0.0000000000000000
 11
52.56823932786193
 21
201.1146663817336
 31
0.0000000000000000
  0
LINE
  5
45B
100
AcDbEntity
  8
MAIN0
  6
CONTINUOUS
 62
3
100
AcDbLine
 10
52.56823932787921
 20
201.1114674281388
 30
0.0000000000000000
 11
50.06823932787926
 21
202.5548431011130
 31
0.0000000000000000
  0
LINE
  5
45C
100
AcDbEntity
  8
MAIN0
  6
CONTINUOUS
 62
3
100
AcDbLine
 10
47.56823932787930
 20
201.1114674281388
 30
0.0000000000000000
 11
50.06823932787926
 21
202.5548431011129
 31
0.0000000000000000
  0
LINE
  5
45D
100
AcDbEntity
  8
MAIN0
  6
CONTINUOUS
 62
3
100
AcDbLine
 10
52.56823932786352
 20
200.6146663817336
 30
0.0000000000000000
 11
52.56823932786196
 21
201.1114674281389
 31
0.0000000000000000
  0
LINE
  5
45E
100
AcDbEntity
  8
MAIN0
  6
PHANTOM
 62
3
100
AcDbLine
 10
101.5682393278790
 20
142.6146663817557
 30
0.0000000000000000
 11
101.5682393278790
 21
87.61466638175567
 31
0.0000000000000000
  0
LINE
  5
45F
100
AcDbEntity
  8
MAIN0
  6
PHANTOM
 62
3
100
AcDbLine
 10
86.56823932787921
 20
142.6146663817333
 30
0.0000000000000000
 11
101.5682393278631
 21
142.6146663817333
 31
0.0000000000000000
  0
LINE
  5
460
100
AcDbEntity
  8
MAIN0
  6
PHANTOM
 62
3
100
AcDbLine
 10
121.6682393278790
 20
214.1146663817334
 30
0.0000000000000000
 11
122.0682393278790
 21
213.7146663817334
 31
0.0000000000000000
  0
LINE
  5
461
100
AcDbEntity
  8
MAIN0
  6
PHANTOM
 62
3
100
AcDbLine
 10
119.5057065173165
 20
186.6146663817329
 30
0.0000000000000000
 11
121.6682393278790
 21
186.6146663817330
 31
0.0000000000000000
  0
LINE
  5
462
100
AcDbEntity
  8
MAIN0
  6
PHANTOM
 62
3
100
AcDbLine
 10
122.0682393278789
 20
186.2146663817330
 30
0.0000000000000000
 11
121.6682393278790
 21
186.6146663817330
 31
0.0000000000000000
  0
LINE
  5
463
100
AcDbEntity
  8
MAIN0
  6
PHANTOM
 62
3
100
AcDbLine
 10
121.6682393278790
 20
182.1146663817338
 30
0.0000000000000000
 11
122.0682393278790
 21
182.5146663817338
 31
0.0000000000000000
  0
LEADER
  5
464
100
AcDbEntity
  8
MAIN0
  6
CONTINUOUS
 62
3
100
AcDbLeader
  3
MAIN001
 73
     0
 74
     0
 75
     1
 40
3.099999904632568
 41
25.10100001639128
 76
     3
 10
125.0621283373790
 20
175.1146663817332
 30
0.0000000000000000
 10
151.3294418387393
 20
135.9109861536457
 30
0.0000000000000000
 10
153.1144417860786
 20
135.9109861536457
 30
0.0000000000000000
340
465
213
-0.001000000000004775
223
-0.5000000000000000
233
0.0000000000000000
1001
ACAD
1000
DSTYLE
1002
{
1070
   147
1040
0.0
1070
    77
1070
     1
1070
   173
1070
     1
1070
     6
1000
_OPEN
1070
     7
1000
_OPEN
1002
}
  0
MTEXT
  5
465
102
{ACAD_REACTORS
330
464
102
}
100
AcDbEntity
  8
MAIN0
  6
CONTINUOUS
 62
3
100
AcDbMText
 10
153.1154417860786
 20
139.5109860582783
 30
0.0000000000000000
 40
3.099999904632568
 41
0.0000000000000000
 71
     1
 72
     1
  1
{\H0.71x;{3-M5 深10\P3-M5 DEPTH10}}
 11
1.000000000000000
 21
0.0000000000000000
 31
0.0000000000000000
  7
KNJYOKO
  0
LEADER
  5
466
100
AcDbEntity
  8
MAIN0
  6
CONTINUOUS
 62
3
100
AcDbLeader
  3
MAIN001
 73
     0
 75
     1
 40
4.000000000000000
 41
25.19900091195107
 76
     3
 10
101.6582910321207
 20
176.2193517476260
 30
0.0000000000000000
 10
97.66120489488071
 20
181.8857534833687
 30
0.0000000000000000
 10
95.42020489488071
 20
181.8857534833687
 30
0.0000000000000000
340
467
213
0.0000000000000000
223
-0.5000000000000000
233
0.0000000000000000
1001
ACAD
1000
DSTYLE
1002
{
1070
   147
1040
0.0
1070
    77
1070
     1
1070
   173
1070
     1
1070
     6
1000
_OPEN
1070
     7
1000
_OPEN
1002
}
  0
MTEXT
  5
467
102
{ACAD_REACTORS
330
466
102
}
100
AcDbEntity
  8
MAIN0
  6
CONTINUOUS
 62
3
100
AcDbMText
 10
70.22120398292964
 20
186.3857534833687
 30
0.0000000000000000
 40
4.000000000000000
 41
0.0000000000000000
 71
     1
 72
     1
  1
{\H0.59x;{表面追加工深さ限度}}
 11
1.000000000000000
 21
0.0000000000000000
 31
0.0000000000000000
  7
KNJYOKO
  0
LEADER
  5
468
100
AcDbEntity
  8
MAIN0
  6
CONTINUOUS
 62
3
100
AcDbLeader
  3
MAIN001
 73
     0
 75
     1
 40
3.099999904632568
 41
4.099000001490111
 76
     3
 10
129.0682393278790
 20
233.6230260552672
 30
0.0000000000000000
 10
124.0682393278790
 20
258.1146663817336
 30
0.0000000000000000
 10
122.2812393805397
 20
258.1146663817336
 30
0.0000000000000000
340
469
213
0.0000000000000000
223
-0.5000000000000000
233
0.0000000000000000
1001
ACAD
1000
DSTYLE
1002
{
1070
   147
1040
0.0
1070
    77
1070
     1
1070
   173
1070
     1
1070
     6
1000
_OPEN
1070
     7
1000
_OPEN
1002
}
  0
MTEXT
  5
469
102
{ACAD_REACTORS
330
468
102
}
100
AcDbEntity
  8
MAIN0
  6
CONTINUOUS
 62
3
100
AcDbMText
 10
118.1822393790496
 20
261.7146662863662
 30
0.0000000000000000
 40
3.099999904632568
 41
0.0000000000000000
 71
     1
 72
     1
  1
{\H0.69x;{M6}}
 11
1.000000000000000
 21
0.0000000000000000
 31
0.0000000000000000
  7
STANDARD
  0
LINE
  5
46A
100
AcDbEntity
  8
MAIN0
  6
CONTINUOUS
 62
3
100
AcDbLine
 10
126.5682393278790
 20
174.2146663817331
 30
0.0000000000000000
 11
125.7682393278790
 21
175.0146663817331
 31
0.0000000000000000
  0
LINE
  5
46B
100
AcDbEntity
  8
MAIN0
  6
CONTINUOUS
 62
3
100
AcDbLine
 10
125.7682393278790
 20
175.0146663817331
 30
0.0000000000000000
 11
125.7682393278790
 21
179.2146663817331
 31
0.0000000000000000
  0
LINE
  5
46C
100
AcDbEntity
  8
MAIN0
  6
CONTINUOUS
 62
3
100
AcDbLine
 10
125.7682393278790
 20
179.2146663817331
 30
0.0000000000000000
 11
126.5682393278790
 21
180.0146663817331
 31
0.0000000000000000
  0
LINE
  5
46D
100
AcDbEntity
  8
MAIN0
  6
CONTINUOUS
 62
3
100
AcDbLine
 10
126.1682393278791
 20
174.6146663817331
 30
0.0000000000000000
 11
116.5682393278790
 21
174.6146663817331
 31
0.0000000000000000
  0
LINE
  5
46E
100
AcDbEntity
  8
MAIN0
  6
CONTINUOUS
 62
3
100
AcDbLine
 10
116.5682393278790
 20
174.6146663817331
 30
0.0000000000000000
 11
116.5682393278790
 21
179.6146663817331
 31
0.0000000000000000
  0
LINE
  5
46F
100
AcDbEntity
  8
MAIN0
  6
CONTINUOUS
 62
3
100
AcDbLine
 10
116.5682393278790
 20
179.6146663817331
 30
0.0000000000000000
 11
126.1682393278791
 21
179.6146663817331
 31
0.0000000000000000
  0
LINE
  5
470
100
AcDbEntity
  8
MAIN0
  6
CONTINUOUS
 62
3
100
AcDbLine
 10
125.7682393278790
 20
175.0146663817331
 30
0.0000000000000000
 11
112.5988751710551
 21
175.0146663817331
 31
0.0000000000000000
  0
LINE
  5
471
100
AcDbEntity
  8
MAIN0
  6
CONTINUOUS
 62
3
100
AcDbLine
 10
113.1808069385582
 20
179.2146885690339
 30
0.0000000000000000
 11
125.7682393278790
 21
179.2146663817331
 31
0.0000000000000000
  0
ARC
  5
472
100
AcDbEntity
  8
MAIN0
  6
CONTINUOUS
 62
3
100
AcDbCircle
 10
127.5682393278790
 20
175.1146663817332
 30
0.0000000000000000
 40
2.750000000000000
100
AcDbArc
 50
270.0000000000000
 51
360.0000000000000
  0
LINE
  5
473
100
AcDbEntity
  8
MAIN0
  6
CONTINUOUS
 62
3
100
AcDbLine
 10
130.3182393278790
 20
175.1146663817332
 30
0.0000000000000000
 11
130.3182393278790
 21
179.1146663817332
 31
0.0000000000000000
  0
ARC
  5
474
100
AcDbEntity
  8
MAIN0
  6
CONTINUOUS
 62
3
100
AcDbCircle
 10
127.5682393278790
 20
179.1146663817332
 30
0.0000000000000000
 40
2.750000000000000
100
AcDbArc
 50
0.0000000000000000
 51
90.00000000000000
  0
LINE
  5
475
100
AcDbEntity
  8
MAIN0
  6
CONTINUOUS
 62
3
100
AcDbLine
 10
127.5682393278790
 20
174.6146663817332
 30
0.0000000000000000
 11
117.5682393278790
 21
174.6146663817332
 31
0.0000000000000000
  0
LINE
  5
476
100
AcDbEntity
  8
MAIN0
  6
CONTINUOUS
 62
3
100
AcDbLine
 10
117.5682393278790
 20
174.6146663817332
 30
0.0000000000000000
 11
117.5682393278790
 21
179.6146663817332
 31
0.0000000000000000
  0
LINE
  5
477
100
AcDbEntity
  8
MAIN0
  6
CONTINUOUS
 62
3
100
AcDbLine
 10
117.5682393278790
 20
179.6146663817332
 30
0.0000000000000000
 11
127.5682393278790
 21
179.6146663817332
 31
0.0000000000000000
  0
LINE
  5
478
100
AcDbEntity
  8
MAIN0
  6
CONTINUOUS
 62
3
100
AcDbLine
 10
127.5682393278790
 20
175.0476791817332
 30
0.0000000000000000
 11
117.5682393278790
 21
175.0476791817332
 31
0.0000000000000000
  0
LINE
  5
479
100
AcDbEntity
  8
MAIN0
  6
CONTINUOUS
 62
3
100
AcDbLine
 10
127.5682393278790
 20
179.1816535817332
 30
0.0000000000000000
 11
117.5682393278790
 21
179.1816535817332
 31
0.0000000000000000
  0
LINE
  5
47A
100
AcDbEntity
  8
MAIN0
  6
HIDDEN
 62
3
100
AcDbLine
 10
46.76823932787903
 20
139.7849163818674
 30
0.0000000000000000
 11
46.76823932787903
 21
130.4444163818674
 31
0.0000000000000000
  0
LINE
  5
47B
100
AcDbEntity
  8
MAIN0
  6
HIDDEN
 62
3
100
AcDbLine
 10
42.06823932787907
 20
130.8785413818674
 30
0.0000000000000000
 11
46.76823932787906
 21
131.0254163818674
 31
0.0000000000000000
  0
LINE
  5
47C
100
AcDbEntity
  8
MAIN0
  6
HIDDEN
 62
3
100
AcDbLine
 10
42.06823932787899
 20
130.2975413818674
 30
0.0000000000000000
 11
46.76823932787904
 21
130.4444163818674
 31
0.0000000000000000
  0
LINE
  5
47D
100
AcDbEntity
  8
MAIN0
  6
HIDDEN
 62
3
100
AcDbLine
 10
42.06823932787901
 20
139.3507913818674
 30
0.0000000000000000
 11
46.76823932787890
 21
139.2039163818674
 31
0.0000000000000000
  0
LINE
  5
47E
100
AcDbEntity
  8
MAIN0
  6
HIDDEN
 62
3
100
AcDbLine
 10
42.06823932787901
 20
139.9317913818674
 30
0.0000000000000000
 11
46.76823932787895
 21
139.7849163818674
 31
0.0000000000000000
  0
LINE
  5
47F
100
AcDbEntity
  8
MAIN0
  6
CONTINUOUS
 62
3
100
AcDbLine
 10
129.0682393278793
 20
31.85009808882799
 30
0.0000000000000000
 11
235.0682393278793
 21
31.85009808882799
 31
0.0000000000000000
  0
MTEXT
  5
480
100
AcDbEntity
  8
MAIN0
  6
CONTINUOUS
 62
3
100
AcDbMText
 10
194.5682393278793
 20
35.65009799346049
 30
0.0000000000000000
 40
3.099999904632568
 41
0.0000000000000000
 71
     1
 72
     1
  1
{\H0.93x;{\U+220550～\U+22055　mm}}
 11
1.000000000000000
 21
0.0000000000000000
 31
0.0000000000000000
  7
KNJYOKO
  0
LINE
  5
481
100
AcDbEntity
  8
MAIN0
  6
CONTINUOUS
 62
3
100
AcDbLine
 10
180.0682393278793
 20
95.85009808882799
 30
0.0000000000000000
 11
235.0682393278793
 21
95.85009808882799
 31
0.0000000000000000
  0
LINE
  5
482
100
AcDbEntity
  8
MAIN0
  6
CONTINUOUS
 62
3
100
AcDbLine
 10
180.0682393278793
 20
81.85009808882799
 30
0.0000000000000000
 11
235.0682393278793
 21
81.85009808882799
 31
0.0000000000000000
  0
MTEXT
  5
483
100
AcDbEntity
  8
MAIN0
  6
CONTINUOUS
 62
3
100
AcDbMText
 10
208.2737158575669
 20
99.11339254851657
 30
0.0000000000000000
 40
2.399999618530273
 41
0.0000000000000000
 71
     1
 72
     1
  1
{\H0.93x;{ソフトジョー使用時}}
 11
1.000000000000000
 21
0.0000000000000000
 31
0.0000000000000000
  7
KNJYOKO
  0
MTEXT
  5
484
100
AcDbEntity
  8
MAIN0
  6
CONTINUOUS
 62
3
100
AcDbMText
 10
182.5682393278793
 20
92.05009808882792
 30
0.0000000000000000
 40
2.500000000000000
 41
0.0000000000000000
 71
     1
 72
     1
  1
{\H0.63x;{7.4kN (754Kgf)}}
 11
1.000000000000000
 21
0.0000000000000000
 31
0.0000000000000000
  7
STANDARD
  0
MTEXT
  5
485
100
AcDbEntity
  8
MAIN0
  6
CONTINUOUS
 62
3
100
AcDbMText
 10
182.5682393278793
 20
78.05009808882792
 30
0.0000000000000000
 40
2.500000000000000
 41
0.0000000000000000
 71
     1
 72
     1
  1
{\H0.63x;{17.4kN (1774Kgf)}}
 11
1.000000000000000
 21
0.0000000000000000
 31
0.0000000000000000
  7
STANDARD
  0
MTEXT
  5
486
100
AcDbEntity
  8
MAIN0
  6
CONTINUOUS
 62
3
100
AcDbMText
 10
182.5682393278793
 20
85.05009808882792
 30
0.0000000000000000
 40
2.500000000000000
 41
0.0000000000000000
 71
     1
 72
     1
  1
{\H0.62x;{16　kN (1631Kgf)}}
 11
1.000000000000000
 21
0.0000000000000000
 31
0.0000000000000000
  7
KNJYOKO
  0
LINE
  5
487
100
AcDbEntity
  8
MAIN0
  6
CONTINUOUS
 62
3
100
AcDbLine
 10
156.0682393278793
 20
67.85009808882799
 30
0.0000000000000000
 11
235.0682393278793
 21
67.85009808882799
 31
0.0000000000000000
  0
MTEXT
  5
488
100
AcDbEntity
  8
MAIN0
  6
CONTINUOUS
 62
3
100
AcDbMText
 10
131.2049755387220
 20
24.03088813031937
 30
0.0000000000000000
 40
3.099999904632568
 41
0.0000000000000000
 71
     1
 72
     1
  1
{\H0.71x;{○把握力はジョーおよびワークの把握部状態により変化します。\P　THE GRIPPING FORCE IS DIFFERENT DEPENDING ON\P　THE GRIPPING STATE.}}
 11
1.000000000000000
 21
0.0000000000000000
 31
0.0000000000000000
  7
KNJYOKO
  0
LINE
  5
489
100
AcDbEntity
  8
MAIN0
  6
CONTINUOUS
 62
3
100
AcDbLine
 10
129.0682393278793
 20
60.85009808882799
 30
0.0000000000000000
 11
235.0682393278793
 21
60.85009808882799
 31
0.0000000000000000
  0
MTEXT
  5
48A
100
AcDbEntity
  8
MAIN0
  6
CONTINUOUS
 62
3
100
AcDbMText
 10
182.5682393278793
 20
57.65009799346049
 30
0.0000000000000000
 40
3.099999904632568
 41
0.0000000000000000
 71
     1
 72
     1
  1
{\H0.71x;{0.2 MPa　(　2kgf/cm )}}
 11
1.000000000000000
 21
0.0000000000000000
 31
0.0000000000000000
  7
KNJYOKO
  0
MTEXT
  5
48B
100
AcDbEntity
  8
MAIN0
  6
CONTINUOUS
 62
3
100
AcDbMText
 10
251.0682393278793
 20
60.11051841569687
 30
0.0000000000000000
 40
3.099999904632568
 41
0.0000000000000000
 71
     1
 72
     1
  1
{\H0.70x;{専用ロケータを必ず使用して下さい。}}
 11
1.000000000000000
 21
0.0000000000000000
 31
0.0000000000000000
  7
KNJYOKO
  0
LINE
  5
48C
100
AcDbEntity
  8
MAIN0
  6
CONTINUOUS
 62
3
100
AcDbLine
 10
144.5682393278789
 20
246.1146663817319
 30
0.0000000000000000
 11
144.5682393278789
 21
240.1146663817320
 31
0.0000000000000000
  0
LINE
  5
48D
100
AcDbEntity
  8
MAIN0
  6
CONTINUOUS
 62
3
100
AcDbLine
 10
131.5682393278790
 20
233.0817600552672
 30
0.0000000000000000
 11
131.5682393278790
 21
236.1146663817339
 31
0.0000000000000000
  0
LINE
  5
48E
100
AcDbEntity
  8
MAIN0
  6
CONTINUOUS
 62
3
100
AcDbLine
 10
131.5682393278790
 20
228.1642920552672
 30
0.0000000000000000
 11
131.5682393278790
 21
224.9433442086015
 31
0.0000000000000000
  0
LINE
  5
48F
100
AcDbEntity
  8
MAIN0
  6
CENTER
 62
3
100
AcDbLine
 10
116.2136489119521
 20
232.0450729819310
 30
0.0000000000000000
 11
150.9702941201024
 21
240.7108779172081
 31
0.0000000000000000
  0
LINE
  5
490
100
AcDbEntity
  8
MAIN0
  6
CONTINUOUS
 62
3
100
AcDbLine
 10
112.5049691864329
 20
214.1146663817335
 30
0.0000000000000000
 11
126.6682393278790
 21
214.1146663817335
 31
0.0000000000000000
  0
LINE
  5
491
100
AcDbEntity
  8
MAIN0
  6
CONTINUOUS
 62
3
100
AcDbLine
 10
112.7680046981676
 20
182.1146663817338
 30
0.0000000000000000
 11
126.5682393278790
 21
182.1146663817338
 31
0.0000000000000000
  0
LINE
  5
492
100
AcDbEntity
  8
MAIN0
  6
CONTINUOUS
 62
3
100
AcDbLine
 10
112.7680046981676
 20
182.1146663817338
 30
0.0000000000000000
 11
114.3682893278789
 21
182.1146663817338
 31
0.0000000000000000
  0
LINE
  5
493
100
AcDbEntity
  8
MAIN0
  6
CONTINUOUS
 62
3
100
AcDbLine
 10
117.5682893278789
 20
182.1146663817338
 30
0.0000000000000000
 11
118.6682393278790
 21
182.1146663817338
 31
0.0000000000000000
  0
LINE
  5
494
100
AcDbEntity
  8
MAIN0
  6
PHANTOM
 62
12
100
AcDbLine
 10
107.4671976888885
 20
143.6646663817336
 30
0.0000000000000000
 11
117.1579852899868
 21
160.4496028721872
 31
0.0000000000000000
  0
LINE
  5
495
100
AcDbEntity
  8
MAIN0
  6
PHANTOM
 62
3
100
AcDbLine
 10
125.8182393278291
 20
155.4496028721862
 30
0.0000000000000000
 11
117.1579852899868
 21
160.4496028721872
 31
0.0000000000000000
  0
LINE
  5
496
100
AcDbEntity
  8
MAIN0
  6
PHANTOM
 62
12
100
AcDbLine
 10
109.9814481095505
 20
158.8194758532664
 30
0.0000000000000000
 11
107.4814481095497
 21
154.4893488343446
 31
0.0000000000000000
  0
LINE
  5
497
100
AcDbEntity
  8
MAIN0
  6
PHANTOM
 62
12
100
AcDbLine
 10
121.4998240220659
 20
151.7698881544206
 30
0.0000000000000000
 11
119.3457580992116
 21
148.0389365331860
 31
0.0000000000000000
  0
LINE
  5
498
100
AcDbEntity
  8
MAIN0
  6
PHANTOM
 62
12
100
AcDbLine
 10
115.4287112321498
 20
157.4544123438040
 30
0.0000000000000000
 11
111.3872593478211
 21
150.4544123438047
 31
0.0000000000000000
  0
LINE
  5
499
100
AcDbEntity
  8
MAIN0
  6
PHANTOM
 62
12
100
AcDbLine
 10
114.9079852899861
 20
156.5524885551578
 30
0.0000000000000000
 11
110.6644608114428
 21
159.0024885551586
 31
0.0000000000000000
  0
LINE
  5
49A
100
AcDbEntity
  8
MAIN0
  6
PHANTOM
 62
12
100
AcDbLine
 10
117.4205696608537
 20
156.3044123438036
 30
0.0000000000000000
 11
115.4287112321498
 21
157.4544123438040
 31
0.0000000000000000
  0
LINE
  5
49B
100
AcDbEntity
  8
MAIN0
  6
PHANTOM
 62
12
100
AcDbLine
 10
111.9079852899850
 20
151.3563361324515
 30
0.0000000000000000
 11
107.6644608114417
 21
153.8063361324523
 31
0.0000000000000000
  0
LINE
  5
49C
100
AcDbEntity
  8
MAIN0
  6
PHANTOM
 62
12
100
AcDbLine
 10
113.3791177765251
 20
149.3044123438044
 30
0.0000000000000000
 11
111.3872593478211
 21
150.4544123438047
 31
0.0000000000000000
  0
LINE
  5
49D
100
AcDbEntity
  8
MAIN0
  6
PHANTOM
 62
12
100
AcDbLine
 10
117.4205696608538
 20
156.3044123438036
 30
0.0000000000000000
 11
113.3791177765251
 21
149.3044123438044
 31
0.0000000000000000
  0
LINE
  5
49E
100
AcDbEntity
  8
MAIN0
  6
PHANTOM
 62
12
100
AcDbLine
 10
117.9596021524913
 20
154.5614944432119
 30
0.0000000000000000
 11
118.8437051189422
 21
154.4019699322195
 31
0.0000000000000000
  0
LINE
  5
49F
100
AcDbEntity
  8
MAIN0
  6
PHANTOM
 62
12
100
AcDbLine
 10
115.7382502389007
 20
149.0231605818284
 30
0.0000000000000000
 11
115.1580452009672
 21
149.7090554628766
 31
0.0000000000000000
  0
LINE
  5
4A0
100
AcDbEntity
  8
MAIN0
  6
PHANTOM
 62
12
100
AcDbLine
 10
116.4102066897716
 20
154.5544123438039
 30
0.0000000000000000
 11
114.4183482610676
 21
155.7044123438043
 31
0.0000000000000000
  0
LINE
  5
4A1
100
AcDbEntity
  8
MAIN0
  6
PHANTOM
 62
12
100
AcDbLine
 10
114.3894807476073
 20
151.0544123438043
 30
0.0000000000000000
 11
112.3976223189033
 21
152.2044123438047
 31
0.0000000000000000
  0
LINE
  5
4A2
100
AcDbEntity
  8
MAIN0
  6
PHANTOM
 62
12
100
AcDbLine
 10
110.2546531903075
 20
158.8926809340233
 30
0.0000000000000000
 11
113.8287195393751
 21
156.8291927652865
 31
0.0000000000000000
  0
LINE
  5
4A3
100
AcDbEntity
  8
MAIN0
  6
PHANTOM
 62
12
100
AcDbLine
 10
107.5546531903064
 20
154.2161437535878
 30
0.0000000000000000
 11
111.1287195393751
 21
152.1526555848505
 31
0.0000000000000000
  0
LINE
  5
4A4
100
AcDbEntity
  8
MAIN0
  6
PHANTOM
 62
12
100
AcDbLine
 10
113.9787195393753
 20
157.0890003864217
 30
0.0000000000000000
 11
110.9787195393742
 21
151.8928479637155
 31
0.0000000000000000
  0
LINE
  5
4A5
100
AcDbEntity
  8
MAIN0
  6
PHANTOM
 62
12
100
AcDbLine
 10
109.9814481095504
 20
158.8194758532663
 30
0.0000000000000000
 11
110.6644608114426
 21
159.0024885551584
 31
0.0000000000000000
  0
LINE
  5
4A6
100
AcDbEntity
  8
MAIN0
  6
PHANTOM
 62
12
100
AcDbLine
 10
107.4814481095495
 20
154.4893488343444
 30
0.0000000000000000
 11
107.6644608114416
 21
153.8063361324522
 31
0.0000000000000000
  0
LINE
  5
4A7
100
AcDbEntity
  8
MAIN0
  6
PHANTOM
 62
12
100
AcDbLine
 10
110.6644608114428
 20
159.0024885551584
 30
0.0000000000000000
 11
107.6644608114417
 21
153.8063361324522
 31
0.0000000000000000
  0
ARC
  5
4A8
100
AcDbEntity
  8
MAIN0
  6
PHANTOM
 62
12
100
AcDbCircle
 10
118.1371712884441
 20
155.5456027715768
 30
0.0000000000000000
 40
1.000000000000000
100
AcDbArc
 50
149.9999999999889
 51
259.7717992487601
  0
ARC
  5
4A9
100
AcDbEntity
  8
MAIN0
  6
PHANTOM
 62
12
100
AcDbCircle
 10
114.3945669565036
 20
149.0632219160312
 30
0.0000000000000000
 40
1.000000000000000
100
AcDbArc
 50
40.22820075121702
 51
149.9999999999891
  0
ARC
  5
4AA
100
AcDbEntity
  8
MAIN0
  6
PHANTOM
 62
12
100
AcDbCircle
 10
118.2577275511779
 20
151.1544123438037
 30
0.0000000000000000
 40
3.299999999999997
100
AcDbArc
 50
220.2282116100248
 51
289.2509456225167
  0
ARC
  5
4AB
100
AcDbEntity
  8
MAIN0
  6
PHANTOM
 62
12
100
AcDbCircle
 10
118.2577275511779
 20
151.1544123438037
 30
0.0000000000000000
 40
3.299999999999997
100
AcDbArc
 50
10.74905437746120
 51
79.77180951777152
  0
ARC
  5
4AC
100
AcDbEntity
  8
MAIN0
  6
PHANTOM
 62
12
100
AcDbCircle
 10
120.3096437587486
 20
149.9697379690076
 30
0.0000000000000000
 40
1.000000000000000
100
AcDbArc
 50
247.5072271955645
 51
412.4927728044136
  0
LINE
  5
4AD
100
AcDbEntity
  8
MAIN0
  6
CONTINUOUS
 62
12
100
AcDbLine
 10
107.6644608114416
 20
153.8063361324527
 30
0.0000000000000000
 11
104.9797820597104
 21
155.3563361324531
 31
0.0000000000000000
  0
LINE
  5
4AE
100
AcDbEntity
  8
MAIN0
  6
PHANTOM
 62
12
100
AcDbLine
 10
110.6644608114430
 20
159.0024885551586
 30
0.0000000000000000
 11
107.9797820597114
 21
160.5524885551591
 31
0.0000000000000000
  0
LINE
  5
4AF
100
AcDbEntity
  8
MAIN0
  6
PHANTOM
 62
12
100
AcDbLine
 10
104.9797820597104
 20
155.3563361324530
 30
0.0000000000000000
 11
107.9797820597114
 21
160.5524885551590
 31
0.0000000000000000
  0
LINE
  5
4B0
100
AcDbEntity
  8
MAIN0
  6
PHANTOM
 62
12
100
AcDbLine
 10
109.9814481095506
 20
158.8194758532664
 30
0.0000000000000000
 11
105.1682393278790
 21
161.5983832390317
 31
0.0000000000000000
  0
LINE
  5
4B1
100
AcDbEntity
  8
MAIN0
  6
PHANTOM
 62
12
100
AcDbLine
 10
107.4814481095497
 20
154.4893488343445
 30
0.0000000000000000
 11
105.1682393278789
 21
155.8248805471345
 31
0.0000000000000000
  0
LINE
  5
4B2
100
AcDbEntity
  8
MAIN0
  6
PHANTOM
 62
3
100
AcDbLine
 10
105.1682393278789
 20
155.8248805471345
 30
0.0000000000000000
 11
102.9825278337761
 21
158.6257298611278
 31
0.0000000000000000
  0
LINE
  5
4B3
100
AcDbEntity
  8
MAIN0
  6
PHANTOM
 62
3
100
AcDbLine
 10
105.1682393278790
 20
161.5983832390317
 30
0.0000000000000000
 11
103.1079101395603
 21
161.3372665438257
 31
0.0000000000000000
  0
LINE
  5
4B4
100
AcDbEntity
  8
MAIN0
  6
HIDDEN
 62
3
100
AcDbLine
 10
42.06823932787894
 20
164.1146663818668
 30
0.0000000000000000
 11
42.06823932787894
 21
157.1146663818668
 31
0.0000000000000000
  0
LINE
  5
4B5
100
AcDbEntity
  8
MAIN0
  6
HIDDEN
 62
3
100
AcDbLine
 10
42.06823932787891
 20
168.9786663818668
 30
0.0000000000000000
 11
46.76823932787892
 21
168.8317913818668
 31
0.0000000000000000
  0
LINE
  5
4B6
100
AcDbEntity
  8
MAIN0
  6
HIDDEN
 62
3
100
AcDbLine
 10
46.76823932787893
 20
159.3975413818668
 30
0.0000000000000000
 11
42.06823932787893
 21
159.2506663818668
 31
0.0000000000000000
  0
LINE
  5
4B7
100
AcDbEntity
  8
MAIN0
  6
HIDDEN
 62
3
100
AcDbLine
 10
42.06823932787891
 20
168.3976663818668
 30
0.0000000000000000
 11
46.76823932787893
 21
168.2507913818668
 31
0.0000000000000000
  0
LINE
  5
4B8
100
AcDbEntity
  8
MAIN0
  6
HIDDEN
 62
3
100
AcDbLine
 10
42.06823932787890
 20
159.8316663818668
 30
0.0000000000000000
 11
46.76823932787892
 21
159.9785413818668
 31
0.0000000000000000
  0
LINE
  5
4B9
100
AcDbEntity
  8
MAIN0
  6
HIDDEN
 62
3
100
AcDbLine
 10
41.56823932787894
 20
157.1146663818668
 30
0.0000000000000000
 11
42.06823932787894
 21
157.1146663818668
 31
0.0000000000000000
  0
LINE
  5
4BA
100
AcDbEntity
  8
MAIN0
  6
HIDDEN
 62
3
100
AcDbLine
 10
42.06823932787894
 20
135.1146663818674
 30
0.0000000000000000
 11
42.06823932787894
 21
142.1146663818674
 31
0.0000000000000000
  0
LINE
  5
4BB
100
AcDbEntity
  8
MAIN0
  6
HIDDEN
 62
3
100
AcDbLine
 10
42.06823932787894
 20
135.1146663818674
 30
0.0000000000000000
 11
42.06823932787894
 21
128.1146663818674
 31
0.0000000000000000
  0
LINE
  5
4BC
100
AcDbEntity
  8
MAIN0
  6
HIDDEN
 62
3
100
AcDbLine
 10
41.56823932787894
 20
142.1146663818674
 30
0.0000000000000000
 11
42.06823932787894
 21
142.1146663818674
 31
0.0000000000000000
  0
LINE
  5
4BD
100
AcDbEntity
  8
MAIN0
  6
HIDDEN
 62
3
100
AcDbLine
 10
41.56823932787894
 20
128.1146663818674
 30
0.0000000000000000
 11
42.06823932787894
 21
128.1146663818674
 31
0.0000000000000000
  0
LINE
  5
4BE
100
AcDbEntity
  8
MAIN0
  6
HIDDEN
 62
3
100
AcDbLine
 10
46.96823932787925
 20
168.2146663818668
 30
0.0000000000000000
 11
46.76823932787895
 21
168.2146663818668
 31
0.0000000000000000
  0
LINE
  5
4BF
100
AcDbEntity
  8
MAIN0
  6
HIDDEN
 62
3
100
AcDbLine
 10
46.96823932787936
 20
160.0146663818669
 30
0.0000000000000000
 11
46.76823932787895
 21
160.0146663818669
 31
0.0000000000000000
  0
LINE
  5
4C0
100
AcDbEntity
  8
MAIN0
  6
CONTINUOUS
 62
3
100
AcDbLine
 10
148.5682393278790
 20
240.1146663817314
 30
0.0000000000000000
 11
148.5682393278790
 21
199.6146663817331
 31
0.0000000000000000
  0
LINE
  5
4C1
100
AcDbEntity
  8
MAIN0
  6
CONTINUOUS
 62
3
100
AcDbLine
 10
131.5682393278790
 20
228.1642920552672
 30
0.0000000000000000
 11
131.5682393278791
 21
219.1146663817338
 31
0.0000000000000000
  0
LINE
  5
4C2
100
AcDbEntity
  8
MAIN0
  6
CONTINUOUS
 62
3
100
AcDbLine
 10
103.5682393278791
 20
209.6146663817349
 30
0.0000000000000000
 11
103.5682393278791
 21
198.1146663817336
 31
0.0000000000000000
  0
LINE
  5
4C3
100
AcDbEntity
  8
MAIN0
  6
CONTINUOUS
 62
3
100
AcDbLine
 10
117.5682893278789
 20
212.1146663817344
 30
0.0000000000000000
 11
117.5682893278789
 21
214.1146663817335
 31
0.0000000000000000
  0
LINE
  5
4C4
100
AcDbEntity
  8
MAIN0
  6
CONTINUOUS
 62
3
100
AcDbLine
 10
116.1966604246297
 20
143.0646663817337
 30
0.0000000000000000
 11
118.6677929111702
 21
143.0646663817337
 31
0.0000000000000000
  0
LINE
  5
4C5
100
AcDbEntity
  8
MAIN0
  6
PHANTOM
 62
12
100
AcDbLine
 10
127.0682393278790
 20
144.3646663817337
 30
0.0000000000000000
 11
127.0682393278790
 21
157.6146663817330
 31
0.0000000000000000
  0
LINE
  5
4C6
100
AcDbEntity
  8
MAIN0
  6
CONTINUOUS
 62
3
100
AcDbLine
 10
127.0682393278790
 20
157.6146663817330
 30
0.0000000000000000
 11
127.0682393278790
 21
158.1146663817330
 31
0.0000000000000000
  0
LINE
  5
4C7
100
AcDbEntity
  8
MAIN0
  6
HIDDEN
 62
3
100
AcDbLine
 10
46.76823932787895
 20
168.7849163818668
 30
0.0000000000000000
 11
46.76823932787895
 21
159.4444163818668
 31
0.0000000000000000
  0
LINE
  5
4C8
100
AcDbEntity
  8
MAIN0
  6
CENTER
 62
12
100
AcDbLine
 10
119.9418229061660
 20
230.6146663817335
 30
0.0000000000000000
 11
151.1521535813004
 21
230.6146663817334
 31
0.0000000000000000
  0
LINE
  5
4C9
100
AcDbEntity
  8
MAIN0
  6
CENTER
 62
12
100
AcDbLine
 10
101.0682393278790
 20
141.9496485241794
 30
0.0000000000000000
 11
101.0682393278790
 21
163.0533129501609
 31
0.0000000000000000
  0
LINE
  5
4CA
100
AcDbEntity
  8
MAIN0
  6
CONTINUOUS
 62
3
100
AcDbLine
 10
117.5682893278789
 20
182.1146663817338
 30
0.0000000000000000
 11
118.6682393278790
 21
182.1146663817338
 31
0.0000000000000000
  0
LINE
  5
4CB
100
AcDbEntity
  8
MAIN0
  6
CENTER
 62
3
100
AcDbLine
 10
241.3682393278790
 20
259.0828548081582
 30
0.0000000000000000
 11
246.7682393278790
 21
249.7297804472863
 31
0.0000000000000000
  0
LINE
  5
4CC
100
AcDbEntity
  8
MAIN0
  6
CENTER
 62
3
100
AcDbLine
 10
241.0682393278790
 20
136.6268627130385
 30
0.0000000000000000
 11
247.0682393278790
 21
147.0191675584518
 31
0.0000000000000000
  0
LINE
  5
4CD
100
AcDbEntity
  8
MAIN0
  6
CENTER
 62
3
100
AcDbLine
 10
312.0682393278792
 20
136.6268627130386
 30
0.0000000000000000
 11
306.0682393278792
 21
147.0191675584518
 31
0.0000000000000000
  0
CIRCLE
  5
4CE
100
AcDbEntity
  8
MAIN0
  6
CONTINUOUS
 62
3
100
AcDbCircle
 10
230.6062985507535
 20
244.0766071588593
 30
0.0000000000000000
 40
4.500000000000000
  0
CIRCLE
  5
4CF
100
AcDbEntity
  8
MAIN0
  6
CONTINUOUS
 62
3
100
AcDbCircle
 10
322.5301801050046
 20
244.0766071588593
 30
0.0000000000000000
 40
4.500000000000000
  0
CIRCLE
  5
4D0
100
AcDbEntity
  8
MAIN0
  6
CONTINUOUS
 62
3
100
AcDbCircle
 10
230.6062985507534
 20
152.1527256046081
 30
0.0000000000000000
 40
4.500000000000000
  0
CIRCLE
  5
4D1
100
AcDbEntity
  8
MAIN0
  6
CONTINUOUS
 62
3
100
AcDbCircle
 10
322.5301801050047
 20
152.1527256046081
 30
0.0000000000000000
 40
4.500000000000000
  0
CIRCLE
  5
4D2
100
AcDbEntity
  8
MAIN0
  6
CONTINUOUS
 62
3
100
AcDbCircle
 10
220.2765880818905
 20
230.6146663817337
 30
0.0000000000000000
 40
5.000000000000000
  0
LINE
  5
4D3
100
AcDbEntity
  8
MAIN0
  6
CENTER
 62
3
100
AcDbLine
 10
236.9884971065666
 20
158.5349241604213
 30
0.0000000000000000
 11
225.4164167316356
 21
146.9628437854904
 31
0.0000000000000000
  0
LINE
  5
4D4
100
AcDbEntity
  8
MAIN0
  6
CENTER
 62
3
100
AcDbLine
 10
330.3083546980565
 20
251.8547817519112
 30
0.0000000000000000
 11
317.9724580128429
 21
239.5188850666976
 31
0.0000000000000000
  0
LINE
  5
4D5
100
AcDbEntity
  8
MAIN0
  6
CENTER
 62
3
100
AcDbLine
 10
222.8281239577014
 20
251.8547817519113
 30
0.0000000000000000
 11
258.1874078082327
 21
216.4954979013800
 31
0.0000000000000000
  0
LINE
  5
4D6
100
AcDbEntity
  8
MAIN0
  6
CENTER
 62
3
100
AcDbLine
 10
315.5771284675631
 20
159.1057772420496
 30
0.0000000000000000
 11
327.7080469866608
 21
146.9748587229520
 31
0.0000000000000000
  0
ARC
  5
4D7
100
AcDbEntity
  8
MAIN0
  6
CENTER
 62
3
100
AcDbCircle
 10
276.5682393278790
 20
198.1146663817336
 30
0.0000000000000000
 40
65.00000000000001
100
AcDbArc
 50
217.4115826588295
 51
245.2384758464259
  0
ARC
  5
4D8
100
AcDbEntity
  8
MAIN0
  6
CENTER
 62
3
100
AcDbCircle
 10
276.5682393278790
 20
198.1146663817336
 30
0.0000000000000000
 40
65.00000000000001
100
AcDbArc
 50
37.38024774774193
 51
66.73009990416563
  0
ARC
  5
4D9
100
AcDbEntity
  8
MAIN0
  6
CENTER
 62
3
100
AcDbCircle
 10
276.5682393278790
 20
198.1146663817336
 30
0.0000000000000000
 40
65.00000000000001
100
AcDbArc
 50
350.2853385892336
 51
367.5048344799664
  0
ARC
  5
4DA
100
AcDbEntity
  8
MAIN0
  6
CENTER
 62
3
100
AcDbCircle
 10
276.5682393278790
 20
198.1146663817336
 30
0.0000000000000000
 40
65.00000000000001
100
AcDbArc
 50
294.9809663298596
 51
320.2586428320503
  0
CIRCLE
  5
4DB
100
AcDbEntity
  8
MAIN0
  6
CONTINUOUS
 62
3
100
AcDbCircle
 10
332.8598905738675
 20
165.6146663817336
 30
0.0000000000000000
 40
5.000000000000000
  0
ARC
  5
4DC
100
AcDbEntity
  8
MAIN0
  6
CENTER
 62
3
100
AcDbCircle
 10
276.5682393278790
 20
198.1146663817336
 30
0.0000000000000000
 40
65.00000000000001
100
AcDbArc
 50
111.5586654413086
 51
141.4776654113781
  0
ARC
  5
4DD
100
AcDbEntity
  8
MAIN0
  6
CENTER
 62
3
100
AcDbCircle
 10
276.5682393278790
 20
198.1146663817336
 30
0.0000000000000000
 40
65.00000000000001
100
AcDbArc
 50
170.8074539754563
 51
185.5260648372180
  0
LINE
  5
4DE
100
AcDbEntity
  8
MAIN0
  6
CENTER
 62
3
100
AcDbLine
 10
287.5682393278792
 20
141.6407997689291
 30
0.0000000000000000
 11
287.5682393278792
 21
127.6146663817336
 31
0.0000000000000000
  0
LINE
  5
4DF
100
AcDbEntity
  8
MAIN0
  6
CENTER
 62
3
100
AcDbLine
 10
305.6295401824428
 20
135.1146663817335
 30
0.0000000000000000
 11
244.0250232981682
 21
135.1146663817337
 31
0.0000000000000000
  0
CIRCLE
  5
4E0
100
AcDbEntity
  8
MAIN0
  6
CONTINUOUS
 62
3
100
AcDbCircle
 10
211.5682393278790
 20
198.1146663817336
 30
0.0000000000000000
 40
4.000000000000000
  0
CIRCLE
  5
4E1
100
AcDbEntity
  8
MAIN0
  6
CONTINUOUS
 62
3
100
AcDbCircle
 10
211.5682393278790
 20
198.1146663817336
 30
0.0000000000000000
 40
3.400000000000000
  0
CIRCLE
  5
4E2
100
AcDbEntity
  8
MAIN0
  6
CONTINUOUS
 62
3
100
AcDbCircle
 10
341.5682393278790
 20
198.1146663817336
 30
0.0000000000000000
 40
4.000000000000000
  0
CIRCLE
  5
4E3
100
AcDbEntity
  8
MAIN0
  6
CONTINUOUS
 62
3
100
AcDbCircle
 10
341.5682393278790
 20
198.1146663817336
 30
0.0000000000000000
 40
3.400000000000000
  0
ARC
  5
4E4
100
AcDbEntity
  8
MAIN0
  6
CONTINUOUS
 62
3
100
AcDbCircle
 10
244.0682393278790
 20
141.8230151357452
 30
0.0000000000000000
 40
3.400000000000000
100
AcDbArc
 50
13.46424991658437
 51
166.5357500834156
  0
ARC
  5
4E5
100
AcDbEntity
  8
MAIN0
  6
HIDDEN
 62
3
100
AcDbCircle
 10
244.0682393278790
 20
141.8230151357452
 30
0.0000000000000000
 40
3.400000000000000
100
AcDbArc
 50
166.5357500834156
 51
373.4642499165844
  0
ARC
  5
4E6
100
AcDbEntity
  8
MAIN0
  6
HIDDEN
 62
3
100
AcDbCircle
 10
244.0682393278790
 20
141.8230151357452
 30
0.0000000000000000
 40
4.000000000000000
100
AcDbArc
 50
166.5357500834156
 51
371.4149324003458
  0
ARC
  5
4E7
100
AcDbEntity
  8
MAIN0
  6
CONTINUOUS
 62
3
100
AcDbCircle
 10
244.0682393278790
 20
141.8230151357452
 30
0.0000000000000000
 40
4.000000000000000
100
AcDbArc
 50
11.41493240034585
 51
166.5357500834156
  0
ARC
  5
4E8
100
AcDbEntity
  8
MAIN0
  6
HIDDEN
 62
3
100
AcDbCircle
 10
309.0682393278790
 20
141.8230151357452
 30
0.0000000000000000
 40
4.000000000000000
100
AcDbArc
 50
168.5850675996537
 51
371.4149324003463
  0
ARC
  5
4E9
100
AcDbEntity
  8
MAIN0
  6
CONTINUOUS
 62
3
100
AcDbCircle
 10
309.0682393278790
 20
141.8230151357452
 30
0.0000000000000000
 40
4.000000000000000
100
AcDbArc
 50
11.41493240034625
 51
168.5850675996538
  0
ARC
  5
4EA
100
AcDbEntity
  8
MAIN0
  6
CONTINUOUS
 62
3
100
AcDbCircle
 10
309.0682393278790
 20
141.8230151357452
 30
0.0000000000000000
 40
3.400000000000000
100
AcDbArc
 50
13.46424991658483
 51
166.5357500834151
  0
ARC
  5
4EB
100
AcDbEntity
  8
MAIN0
  6
HIDDEN
 62
3
100
AcDbCircle
 10
309.0682393278790
 20
141.8230151357452
 30
0.0000000000000000
 40
3.400000000000000
100
AcDbArc
 50
166.5357500834151
 51
373.4642499165848
  0
CIRCLE
  5
4EC
100
AcDbEntity
  8
MAIN0
  6
CONTINUOUS
 62
3
100
AcDbCircle
 10
309.0682393278790
 20
254.4063176277222
 30
0.0000000000000000
 40
4.000000000000000
  0
CIRCLE
  5
4ED
100
AcDbEntity
  8
MAIN0
  6
CONTINUOUS
 62
3
100
AcDbCircle
 10
309.0682393278790
 20
254.4063176277222
 30
0.0000000000000000
 40
3.400000000000000
  0
CIRCLE
  5
4EE
100
AcDbEntity
  8
MAIN0
  6
CONTINUOUS
 62
3
100
AcDbCircle
 10
244.0682393278790
 20
254.4063176277222
 30
0.0000000000000000
 40
4.000000000000000
  0
CIRCLE
  5
4EF
100
AcDbEntity
  8
MAIN0
  6
CONTINUOUS
 62
3
100
AcDbCircle
 10
244.0682393278790
 20
254.4063176277222
 30
0.0000000000000000
 40
3.400000000000000
  0
MTEXT
  5
4F0
100
AcDbEntity
  8
MAIN0
  6
CONTINUOUS
 62
3
100
AcDbMText
 10
209.1609573947618
 20
114.8580051376428
 30
0.0000000000000000
 40
3.099999904632568
 41
0.0000000000000000
 71
     1
 72
     1
  1
{\H0.92x;{　6　mm}}
 11
1.000000000000000
 21
0.0000000000000000
 31
0.0000000000000000
  7
KNJYOKO
  0
MTEXT
  5
4F1
100
AcDbEntity
  8
MAIN0
  6
CONTINUOUS
 62
3
100
AcDbMText
 10
209.1609573947618
 20
107.8580051376428
 30
0.0000000000000000
 40
3.099999904632568
 41
0.0000000000000000
 71
     1
 72
     1
  1
{\H0.92x;{　3　mm}}
 11
1.000000000000000
 21
0.0000000000000000
 31
0.0000000000000000
  7
KNJYOKO
  0
LINE
  5
4F2
100
AcDbEntity
  8
MAIN0
  6
CONTINUOUS
 62
3
100
AcDbLine
 10
150.0682393278793
 20
102.8500980888280
 30
0.0000000000000000
 11
150.0682393278793
 21
74.85009808882805
 31
0.0000000000000000
  0
MTEXT
  5
4F3
100
AcDbEntity
  8
MAIN0
  6
CONTINUOUS
 62
3
100
AcDbMText
 10
152.0682393278793
 20
98.95009770735820
 30
0.0000000000000000
 40
2.399999618530273
 41
0.0000000000000000
 71
     1
 72
     1
  1
{\H0.92x;{エア圧力}}
 11
1.000000000000000
 21
0.0000000000000000
 31
0.0000000000000000
  7
KNJYOKO
  0
MTEXT
  5
4F4
100
AcDbEntity
  8
MAIN0
  6
CONTINUOUS
 62
3
100
AcDbMText
 10
152.0682393278793
 20
81.95009770735831
 30
0.0000000000000000
 40
2.399999618530273
 41
0.0000000000000000
 71
     1
 72
     1
  1
{\H0.93x;{1.3 MPa\P(13kgf/cm )}}
 11
1.000000000000000
 21
0.0000000000000000
 31
0.0000000000000000
  7
STANDARD
  0
MTEXT
  5
4F5
100
AcDbEntity
  8
MAIN0
  6
CONTINUOUS
 62
3
100
AcDbMText
 10
152.0682393278793
 20
84.95009770735820
 30
0.0000000000000000
 40
2.399999618530273
 41
0.0000000000000000
 71
     1
 72
     1
  1
{\H0.91x;{油圧力}}
 11
1.000000000000000
 21
0.0000000000000000
 31
0.0000000000000000
  7
KNJYOKO
  0
MTEXT
  5
4F6
100
AcDbEntity
  8
MAIN0
  6
CONTINUOUS
 62
3
100
AcDbMText
 10
171.9064162023947
 20
80.13619940100048
 30
0.0000000000000000
 40
2.000000000000000
 41
0.0000000000000000
 71
     1
 72
     1
  1
{\H0.82x;{2}}
 11
1.000000000000000
 21
0.0000000000000000
 31
0.0000000000000000
  7
STANDARD
  0
LINE
  5
4F7
100
AcDbEntity
  8
MAIN0
  6
CONTINUOUS
 62
3
100
AcDbLine
 10
156.0682393278793
 20
74.85009808882799
 30
0.0000000000000000
 11
156.0682393278793
 21
60.85009808882805
 31
0.0000000000000000
  0
MTEXT
  5
4F8
100
AcDbEntity
  8
MAIN0
  6
CONTINUOUS
 62
3
100
AcDbMText
 10
158.0682393278793
 20
63.95009770735820
 30
0.0000000000000000
 40
2.399999618530273
 41
0.0000000000000000
 71
     1
 72
     1
  1
{\H0.91x;{油圧力}}
 11
1.000000000000000
 21
0.0000000000000000
 31
0.0000000000000000
  7
KNJYOKO
  0
MTEXT
  5
4F9
100
AcDbEntity
  8
MAIN0
  6
CONTINUOUS
 62
3
100
AcDbMText
 10
158.0682393278793
 20
70.95009770735820
 30
0.0000000000000000
 40
2.399999618530273
 41
0.0000000000000000
 71
     1
 72
     1
  1
{\H0.92x;{エア圧力}}
 11
1.000000000000000
 21
0.0000000000000000
 31
0.0000000000000000
  7
KNJYOKO
  0
MTEXT
  5
4FA
100
AcDbEntity
  8
MAIN0
  6
CONTINUOUS
 62
3
100
AcDbMText
 10
182.5682393278793
 20
71.65009799346049
 30
0.0000000000000000
 40
3.099999904632568
 41
0.0000000000000000
 71
     1
 72
     1
  1
{\H0.71x;{0.7 MPa　( 7kgf/cm )}}
 11
1.000000000000000
 21
0.0000000000000000
 31
0.0000000000000000
  7
KNJYOKO
  0
MTEXT
  5
4FB
100
AcDbEntity
  8
MAIN0
  6
CONTINUOUS
 62
3
100
AcDbMText
 10
218.8899281436594
 20
72.48404665105821
 30
0.0000000000000000
 40
2.000000000000000
 41
0.0000000000000000
 71
     1
 72
     1
  1
{\H0.82x;{2}}
 11
1.000000000000000
 21
0.0000000000000000
 31
0.0000000000000000
  7
STANDARD
  0
LINE
  5
4FC
100
AcDbEntity
  8
MAIN0
  6
CONTINUOUS
 62
3
100
AcDbLine
 10
129.0682393278793
 20
126.8500980888280
 30
0.0000000000000000
 11
235.0682393278793
 21
126.8500980888280
 31
0.0000000000000000
  0
LINE
  5
4FD
100
AcDbEntity
  8
MAIN0
  6
CONTINUOUS
 62
3
100
AcDbLine
 10
129.0682393278793
 20
116.8500980888280
 30
0.0000000000000000
 11
235.0682393278793
 21
116.8500980888280
 31
0.0000000000000000
  0
LINE
  5
4FE
100
AcDbEntity
  8
MAIN0
  6
CONTINUOUS
 62
3
100
AcDbLine
 10
129.0682393278793
 20
109.8500980888280
 30
0.0000000000000000
 11
235.0682393278793
 21
109.8500980888280
 31
0.0000000000000000
  0
LINE
  5
4FF
100
AcDbEntity
  8
MAIN0
  6
CONTINUOUS
 62
3
100
AcDbLine
 10
129.0682393278793
 20
102.8500980888280
 30
0.0000000000000000
 11
235.0682393278793
 21
102.8500980888280
 31
0.0000000000000000
  0
LINE
  5
500
100
AcDbEntity
  8
MAIN0
  6
CONTINUOUS
 62
3
100
AcDbLine
 10
150.0682393278793
 20
88.85009808882799
 30
0.0000000000000000
 11
235.0682393278793
 21
88.85009808882799
 31
0.0000000000000000
  0
LINE
  5
501
100
AcDbEntity
  8
MAIN0
  6
CONTINUOUS
 62
3
100
AcDbLine
 10
129.0682393278793
 20
53.85009808882799
 30
0.0000000000000000
 11
235.0682393278793
 21
53.85009808882799
 31
0.0000000000000000
  0
LINE
  5
502
100
AcDbEntity
  8
MAIN0
  6
CONTINUOUS
 62
3
100
AcDbLine
 10
129.0682393278793
 20
24.85009808882799
 30
0.0000000000000000
 11
235.0682393278793
 21
24.85009808882799
 31
0.0000000000000000
  0
MTEXT
  5
503
100
AcDbEntity
  8
MAIN0
  6
CONTINUOUS
 62
3
100
AcDbMText
 10
131.0682393278793
 20
86.35009808882799
 30
0.0000000000000000
 40
3.099999904632568
 41
0.0000000000000000
 71
     4
 72
     1
  1
{\H0.70x;{把握力}}
 11
1.000000000000000
 21
0.0000000000000000
 31
0.0000000000000000
  7
KNJYOKO
  0
LINE
  5
504
100
AcDbEntity
  8
MAIN0
  6
CONTINUOUS
 62
3
100
AcDbLine
 10
129.0682393278793
 20
126.8500980888280
 30
0.0000000000000000
 11
129.0682393278794
 21
24.85009808882811
 31
0.0000000000000000
  0
MTEXT
  5
505
100
AcDbEntity
  8
MAIN0
  6
CONTINUOUS
 62
3
100
AcDbMText
 10
208.5682393278611
 20
27.85009808882799
 30
0.0000000000000000
 40
3.099999904632568
 41
0.0000000000000000
 71
     4
 72
     1
  1
{\H0.92x;{7.4 kg}}
 11
1.000000000000000
 21
0.0000000000000000
 31
0.0000000000000000
  7
STANDARD
  0
LINE
  5
506
100
AcDbEntity
  8
MAIN0
  6
CONTINUOUS
 62
3
100
AcDbLine
 10
235.0682393278793
 20
126.8500980888280
 30
0.0000000000000000
 11
235.0682393278793
 21
24.85009808882793
 31
0.0000000000000000
  0
LINE
  5
507
100
AcDbEntity
  8
MAIN0
  6
CONTINUOUS
 62
3
100
AcDbLine
 10
129.0682393278793
 20
74.85009808882799
 30
0.0000000000000000
 11
235.0682393278793
 21
74.85009808882799
 31
0.0000000000000000
  0
MTEXT
  5
508
100
AcDbEntity
  8
MAIN0
  6
CONTINUOUS
 62
3
100
AcDbMText
 10
152.0682393278793
 20
95.95009770735820
 30
0.0000000000000000
 40
2.399999618530273
 41
0.0000000000000000
 71
     1
 72
     1
  1
{\H0.93x;{0.6 MPa\P( 6kgf/cm )}}
 11
1.000000000000000
 21
0.0000000000000000
 31
0.0000000000000000
  7
STANDARD
  0
MTEXT
  5
509
100
AcDbEntity
  8
MAIN0
  6
CONTINUOUS
 62
3
100
AcDbMText
 10
171.9064162023944
 20
94.13619940100048
 30
0.0000000000000000
 40
2.000000000000000
 41
0.0000000000000000
 71
     1
 72
     1
  1
{\H0.82x;{2}}
 11
1.000000000000000
 21
0.0000000000000000
 31
0.0000000000000000
  7
STANDARD
  0
MTEXT
  5
50A
100
AcDbEntity
  8
MAIN0
  6
CONTINUOUS
 62
3
100
AcDbMText
 10
182.5682393278793
 20
99.05009808882792
 30
0.0000000000000000
 40
2.500000000000000
 41
0.0000000000000000
 71
     1
 72
     1
  1
{\H0.63x;{6.7 kN (683Kgf)}}
 11
1.000000000000000
 21
0.0000000000000000
 31
0.0000000000000000
  7
STANDARD
  0
MTEXT
  5
50B
100
AcDbEntity
  8
MAIN0
  6
CONTINUOUS
 62
3
100
AcDbMText
 10
182.5682393278793
 20
64.65009799346049
 30
0.0000000000000000
 40
3.099999904632568
 41
0.0000000000000000
 71
     1
 72
     1
  1
{\H0.71x;{1.3 MPa　(13kgf/cm )}}
 11
1.000000000000000
 21
0.0000000000000000
 31
0.0000000000000000
  7
KNJYOKO
  0
MTEXT
  5
50C
100
AcDbEntity
  8
MAIN0
  6
CONTINUOUS
 62
3
100
AcDbMText
 10
219.0234758321361
 20
65.34088847486035
 30
0.0000000000000000
 40
2.000000000000000
 41
0.0000000000000000
 71
     1
 72
     1
  1
{\H0.82x;{2}}
 11
1.000000000000000
 21
0.0000000000000000
 31
0.0000000000000000
  7
STANDARD
  0
LINE
  5
50D
100
AcDbEntity
  8
MAIN0
  6
CONTINUOUS
 62
3
100
AcDbLine
 10
180.0682393278794
 20
24.85009808882808
 30
0.0000000000000000
 11
180.0682393278793
 21
116.8500980888105
 31
0.0000000000000000
  0
LINE
  5
50E
100
AcDbEntity
  8
WAKU0
  6
CONTINUOUS
 62
3
100
AcDbLine
 10
240.0000000000000
 20
51.00000000000000
 30
0.0000000000000000
 11
410.0000000000000
 21
51.00000000000000
 31
0.0000000000000000
  0
LINE
  5
50F
100
AcDbEntity
  8
WAKU0
  6
CONTINUOUS
 62
3
100
AcDbLine
 10
240.0000000000000
 20
51.00000000000000
 30
0.0000000000000000
 11
240.0000000000000
 21
12.00000000000000
 31
0.0000000000000000
  0
LINE
  5
510
100
AcDbEntity
  8
WAKU0
  6
CONTINUOUS
 62
3
100
AcDbLine
 10
312.0000000000000
 20
51.00000000000000
 30
0.0000000000000000
 11
312.0000000000000
 21
12.00000000000000
 31
0.0000000000000000
  0
LINE
  5
511
100
AcDbEntity
  8
WAKU0
  6
CONTINUOUS
 62
3
100
AcDbLine
 10
332.0000000000000
 20
51.00000000000000
 30
0.0000000000000000
 11
332.0000000000000
 21
12.00000000000000
 31
0.0000000000000000
  0
LINE
  5
512
100
AcDbEntity
  8
WAKU0
  6
CONTINUOUS
 62
3
100
AcDbLine
 10
344.0000000000000
 20
51.00000000000000
 30
0.0000000000000000
 11
344.0000000000000
 21
12.00000000000000
 31
0.0000000000000000
  0
LINE
  5
513
100
AcDbEntity
  8
WAKU0
  6
CONTINUOUS
 62
3
100
AcDbLine
 10
344.0000000000000
 20
37.00000000000000
 30
0.0000000000000000
 11
410.0000000000000
 21
37.00000000000000
 31
0.0000000000000000
  0
LINE
  5
514
100
AcDbEntity
  8
WAKU0
  6
CONTINUOUS
 62
3
100
AcDbLine
 10
332.0000000000000
 20
23.00000000000000
 30
0.0000000000000000
 11
410.0000000000000
 21
23.00000000000000
 31
0.0000000000000000
  0
LINE
  5
515
100
AcDbEntity
  8
WAKU0
  6
CONTINUOUS
 62
3
100
AcDbLine
 10
375.0000000000000
 20
51.00000000000000
 30
0.0000000000000000
 11
375.0000000000000
 21
44.00000000000000
 31
0.0000000000000000
  0
LINE
  5
516
100
AcDbEntity
  8
WAKU0
  6
CONTINUOUS
 62
3
100
AcDbLine
 10
387.0000000000000
 20
51.00000000000000
 30
0.0000000000000000
 11
387.0000000000000
 21
44.00000000000000
 31
0.0000000000000000
  0
LINE
  5
517
100
AcDbEntity
  8
WAKU0
  6
CONTINUOUS
 62
3
100
AcDbLine
 10
312.0000000000000
 20
31.50000000000000
 30
0.0000000000000000
 11
332.0000000000000
 21
31.50000000000000
 31
0.0000000000000000
  0
LINE
  5
518
100
AcDbEntity
  8
WAKU0
  6
CONTINUOUS
 62
3
100
AcDbLine
 10
332.0000000000000
 20
44.00000000000000
 30
0.0000000000000000
 11
410.0000000000000
 21
44.00000000000000
 31
0.0000000000000000
  0
LINE
  5
519
100
AcDbEntity
  8
WAKU0
  6
CONTINUOUS
 62
3
100
AcDbLine
 10
240.0000000000000
 20
37.00000000000000
 30
0.0000000000000000
 11
312.0000000000000
 21
37.00000000000000
 31
0.0000000000000000
  0
LINE
  5
51A
100
AcDbEntity
  8
WAKU0
  6
CONTINUOUS
 62
3
100
AcDbLine
 10
240.0000000000000
 20
23.00000000000000
 30
0.0000000000000000
 11
312.0000000000000
 21
23.00000000000000
 31
0.0000000000000000
  0
LINE
  5
51B
100
AcDbEntity
  8
WAKU0
  6
CONTINUOUS
 62
3
100
AcDbLine
 10
288.0000000000000
 20
37.00000000000000
 30
0.0000000000000000
 11
288.0000000000000
 21
12.00000000000000
 31
0.0000000000000000
  0
LINE
  5
51C
100
AcDbEntity
  8
WAKU0
  6
CONTINUOUS
 62
3
100
AcDbLine
 10
264.0000000000000
 20
37.00000000000000
 30
0.0000000000000000
 11
264.0000000000000
 21
23.00000000000000
 31
0.0000000000000000
  0
LINE
  5
51D
100
AcDbEntity
  8
WAKU0
  6
CONTINUOUS
 62
3
100
AcDbLine
 10
300.0000000000000
 20
26.00000000000000
 30
0.0000000000000000
 11
300.0000000000000
 21
23.00000000000000
 31
0.0000000000000000
  0
LINE
  5
51E
100
AcDbEntity
  8
WAKU0
  6
CONTINUOUS
 62
3
100
AcDbLine
 10
276.0000000000000
 20
26.00000000000000
 30
0.0000000000000000
 11
276.0000000000000
 21
23.00000000000000
 31
0.0000000000000000
  0
LINE
  5
51F
100
AcDbEntity
  8
WAKU0
  6
CONTINUOUS
 62
3
100
AcDbLine
 10
252.0000000000000
 20
26.00000000000000
 30
0.0000000000000000
 11
252.0000000000000
 21
23.00000000000000
 31
0.0000000000000000
  0
LINE
  5
520
100
AcDbEntity
  8
WAKU0
  6
CONTINUOUS
 62
3
100
AcDbLine
 10
258.0000000000000
 20
51.00000000000000
 30
0.0000000000000000
 11
258.0000000000000
 21
37.00000000000000
 31
0.0000000000000000
  0
LINE
  5
521
100
AcDbEntity
  8
WAKU0
  6
CONTINUOUS
 62
3
100
AcDbLine
 10
240.0000000000000
 20
45.00000000000000
 30
0.0000000000000000
 11
312.0000000000000
 21
45.00000000000000
 31
0.0000000000000000
  0
LINE
  5
522
100
AcDbEntity
  8
WAKU0
  6
HIDDEN
 62
3
100
AcDbLine
 10
360.5000000000000
 20
23.00000000000000
 30
0.0000000000000000
 11
360.5000000000000
 21
12.00000000000000
 31
0.0000000000000000
  0
LINE
  5
523
100
AcDbEntity
  8
WAKU0
  6
HIDDEN
 62
3
100
AcDbLine
 10
372.9000000000000
 20
23.00000000000000
 30
0.0000000000000000
 11
372.9000000000000
 21
12.00000000000000
 31
0.0000000000000000
  0
MTEXT
  5
524
100
AcDbEntity
  8
WAKU0
  6
CONTINUOUS
 62
3
100
AcDbMText
 10
344.4820000243485
 20
49.04999995231628
 30
0.0000000000000000
 40
3.099999904632568
 41
0.0000000000000000
 71
     1
 72
     1
  1
{\H0.92x;{PLS04}}
 11
1.000000000000000
 21
0.0000000000000000
 31
0.0000000000000000
  7
STANDARD
  0
MTEXT
  5
525
100
AcDbEntity
  8
WAKU0
  6
CONTINUOUS
 62
3
100
AcDbMText
 10
353.5950003862381
 20
43.50000000000000
 30
0.0000000000000000
 40
3.000000000000000
 41
0.0000000000000000
 71
     1
 72
     1
  1
{\H0.94x;{ワークグリッパ　４\PＷＯＲＫ　ＧＲＩＰＰＥＲ　４}}
 11
1.000000000000000
 21
0.0000000000000000
 31
0.0000000000000000
  7
KNJYOKO
  0
MTEXT
  5
526
100
AcDbEntity
  8
WAKU0
  6
CONTINUOUS
 62
3
100
AcDbMText
 10
356.3099995255470
 20
34.23333326975504
 30
0.0000000000000000
 40
3.099999904632568
 41
0.0000000000000000
 71
     1
 72
     1
  1
{\H0.94x;{ＰＬＳ０４　ガイケイ\PＯＵＴＳＩＤＥ　ＶＩＥＷ}}
 11
1.000000000000000
 21
0.0000000000000000
 31
0.0000000000000000
  7
KNJYOKO
  0
MTEXT
  5
527
100
AcDbEntity
  8
WAKU0
  6
CONTINUOUS
 62
3
100
AcDbMText
 10
318.0049998760223
 20
39.29999995231628
 30
0.0000000000000000
 40
3.099999904632568
 41
0.0000000000000000
 71
     1
 72
     1
  1
{\H0.90x;{1:1}}
 11
1.000000000000000
 21
0.0000000000000000
 31
0.0000000000000000
  7
STANDARD
  0
MTEXT
  5
528
100
AcDbEntity
  8
WAKU0
  6
CONTINUOUS
 62
3
100
AcDbMText
 10
374.4000001549721
 20
20.15000009536743
 30
0.0000000000000000
 40
5.300000190734863
 41
0.0000000000000000
 71
     1
 72
     1
  1
{\H0.90x;{6075}}
 11
1.000000000000000
 21
0.0000000000000000
 31
0.0000000000000000
  7
STANDARD
  0
MTEXT
  5
529
100
AcDbEntity
  8
WAKU0
  6
CONTINUOUS
 62
3
100
AcDbMText
 10
362.3000000834465
 20
20.15000009536743
 30
0.0000000000000000
 40
5.300000190734863
 41
0.0000000000000000
 71
     1
 72
     1
  1
{\H0.87x;{36}}
 11
1.000000000000000
 21
0.0000000000000000
 31
0.0000000000000000
  7
STANDARD
  0
MTEXT
  5
52A
100
AcDbEntity
  8
WAKU0
  6
CONTINUOUS
 62
3
100
AcDbMText
 10
345.5000001192093
 20
20.15000009536743
 30
0.0000000000000000
 40
5.300000190734863
 41
0.0000000000000000
 71
     1
 72
     1
  1
{\H0.89x;{61P}}
 11
1.000000000000000
 21
0.0000000000000000
 31
0.0000000000000000
  7
STANDARD
  0
MTEXT
  5
52B
100
AcDbEntity
  8
WAKU0
  6
CONTINUOUS
 62
3
100
AcDbMText
 10
400.0000000476837
 20
20.15000009536743
 30
0.0000000000000000
 40
5.300000190734863
 41
0.0000000000000000
 71
     1
 72
     1
  1
{\H0.81x;{6}}
 11
1.000000000000000
 21
0.0000000000000000
 31
0.0000000000000000
  7
STANDARD
  0
MTEXT
  5
52C
100
AcDbEntity
  8
WAKU0
  6
CONTINUOUS
 62
3
100
AcDbMText
 10
289.3850002884865
 20
33.00000000000000
 30
0.0000000000000000
 40
3.000000000000000
 41
0.0000000000000000
 71
     7
 72
     1
  1
{\H0.93x;{DRAWN BY}}
 11
1.000000000000000
 21
0.0000000000000000
 31
0.0000000000000000
  7
STANDARD
  0
MTEXT
  5
52D
100
AcDbEntity
  8
WAKU0
  6
CONTINUOUS
 62
3
100
AcDbMText
 10
269.2149997949600
 20
32.95000004768372
 30
0.0000000000000000
 40
3.099999904632568
 41
0.0000000000000000
 71
     7
 72
     1
  1
{\H0.92x;{CHIEF}}
 11
1.000000000000000
 21
0.0000000000000000
 31
0.0000000000000000
  7
STANDARD
  0
MTEXT
  5
52E
100
AcDbEntity
  8
WAKU0
  6
CONTINUOUS
 62
3
100
AcDbMText
 10
242.4249997138977
 20
32.95000004768372
 30
0.0000000000000000
 40
3.099999904632568
 41
0.0000000000000000
 71
     7
 72
     1
  1
{\H0.92x;{MANAGER}}
 11
1.000000000000000
 21
0.0000000000000000
 31
0.0000000000000000
  7
STANDARD
  0
MTEXT
  5
52F
100
AcDbEntity
  8
WAKU0
  6
CONTINUOUS
 62
3
100
AcDbMText
 10
244.6599994301796
 20
18.13333336512248
 30
0.0000000000000000
 40
3.099999904632568
 41
0.0000000000000000
 71
     7
 72
     1
  1
{\H0.93x;{KITAGAWA IRON\PWORKS CO.,LTD.}}
 11
1.000000000000000
 21
0.0000000000000000
 31
0.0000000000000000
  7
STANDARD
  0
MTEXT
  5
530
100
AcDbEntity
  8
WAKU0
  6
CONTINUOUS
 62
3
100
AcDbMText
 10
241.0850002169609
 20
46.50000000000000
 30
0.0000000000000000
 40
3.000000000000000
 41
0.0000000000000000
 71
     7
 72
     1
  1
{\H0.92x;{CAREER}}
 11
1.000000000000000
 21
0.0000000000000000
 31
0.0000000000000000
  7
STANDARD
  0
MTEXT
  5
531
100
AcDbEntity
  8
WAKU0
  6
CONTINUOUS
 62
3
100
AcDbMText
 10
294.6099998354912
 20
18.95000004768372
 30
0.0000000000000000
 40
3.099999904632568
 41
0.0000000000000000
 71
     7
 72
     1
  1
{\H0.91x;{DATE}}
 11
1.000000000000000
 21
0.0000000000000000
 31
0.0000000000000000
  7
STANDARD
  0
MTEXT
  5
532
100
AcDbEntity
  8
WAKU0
  6
CONTINUOUS
 62
3
100
AcDbMText
 10
313.9000002145767
 20
26.50000000000000
 30
0.0000000000000000
 40
3.000000000000000
 41
0.0000000000000000
 71
     7
 72
     1
  1
{\H0.63x;{3RD ANGLE}}
 11
1.000000000000000
 21
0.0000000000000000
 31
0.0000000000000000
  7
STANDARD
  0
MTEXT
  5
533
100
AcDbEntity
  8
WAKU0
  6
CONTINUOUS
 62
3
100
AcDbMText
 10
315.2149997949600
 20
45.95000004768372
 30
0.0000000000000000
 40
3.099999904632568
 41
0.0000000000000000
 71
     7
 72
     1
  1
{\H0.92x;{SCALE}}
 11
1.000000000000000
 21
0.0000000000000000
 31
0.0000000000000000
  7
STANDARD
  0
MTEXT
  5
534
100
AcDbEntity
  8
WAKU0
  6
CONTINUOUS
 62
3
100
AcDbMText
 10
405.7000000476837
 20
46.00000000000000
 30
0.0000000000000000
 40
3.000000000000000
 41
0.0000000000000000
 71
     7
 72
     1
  1
{\H0.63x;{kg}}
 11
1.000000000000000
 21
0.0000000000000000
 31
0.0000000000000000
  7
STANDARD
  0
MTEXT
  5
535
100
AcDbEntity
  8
WAKU0
  6
CONTINUOUS
 62
3
100
AcDbMText
 10
375.6000001430512
 20
46.00000000000000
 30
0.0000000000000000
 40
3.000000000000000
 41
0.0000000000000000
 71
     7
 72
     1
  1
{\H0.63x;{WEIGHT}}
 11
1.000000000000000
 21
0.0000000000000000
 31
0.0000000000000000
  7
STANDARD
  0
MTEXT
  5
536
100
AcDbEntity
  8
WAKU0
  6
CONTINUOUS
 62
3
100
AcDbMText
 10
334.0049998760223
 20
18.13333336512248
 30
0.0000000000000000
 40
3.099999904632568
 41
0.0000000000000000
 71
     7
 72
     1
  1
{\H0.90x;{DRW\PNO.}}
 11
1.000000000000000
 21
0.0000000000000000
 31
0.0000000000000000
  7
STANDARD
  0
MTEXT
  5
537
100
AcDbEntity
  8
WAKU0
  6
CONTINUOUS
 62
3
100
AcDbMText
 10
332.6099998354912
 20
31.95000004768372
 30
0.0000000000000000
 40
3.099999904632568
 41
0.0000000000000000
 71
     7
 72
     1
  1
{\H0.91x;{NAME}}
 11
1.000000000000000
 21
0.0000000000000000
 31
0.0000000000000000
  7
STANDARD
  0
MTEXT
  5
538
100
AcDbEntity
  8
WAKU0
  6
CONTINUOUS
 62
3
100
AcDbMText
 10
332.6099998354912
 20
45.95000004768372
 30
0.0000000000000000
 40
3.099999904632568
 41
0.0000000000000000
 71
     7
 72
     1
  1
{\H0.91x;{TYPE}}
 11
1.000000000000000
 21
0.0000000000000000
 31
0.0000000000000000
  7
STANDARD
  0
LINE
  5
539
100
AcDbEntity
  8
WAKU0
  6
HIDDEN
 62
3
100
AcDbLine
 10
407.1599564743885
 20
13.84999990463257
 30
0.0000000000000000
 11
396.9400436209789
 21
13.84999990463257
 31
0.0000000000000000
  0
LINE
  5
53A
100
AcDbEntity
  8
WAKU0
  6
HIDDEN
 62
3
100
AcDbLine
 10
407.1599564743885
 20
13.84999990463250
 30
0.0000000000000000
 11
402.0500000476852
 21
22.70070406014901
 31
0.0000000000000000
  0
LINE
  5
53B
100
AcDbEntity
  8
WAKU0
  6
HIDDEN
 62
3
100
AcDbLine
 10
402.0500000476852
 20
22.70070406014902
 30
0.0000000000000000
 11
396.9400436209789
 21
13.84999990463248
 31
0.0000000000000000
  0
LINE
  5
53C
100
AcDbEntity
  8
WAKU0
  6
CONTINUOUS
 62
3
100
AcDbLine
 10
330.4713877753800
 20
15.78041421262812
 30
0.0000000000000000
 11
330.4713877753800
 21
21.78041421262815
 31
0.0000000000000000
  0
LINE
  5
53D
100
AcDbEntity
  8
WAKU0
  6
CONTINUOUS
 62
3
100
AcDbLine
 10
323.9336941228225
 20
17.28041421262811
 30
0.0000000000000000
 11
323.9336941228225
 21
20.28041421262824
 31
0.0000000000000000
  0
LINE
  5
53E
100
AcDbEntity
  8
WAKU0
  6
CENTER
 62
12
100
AcDbLine
 10
313.4321805514995
 20
18.78041421262813
 30
0.0000000000000000
 11
331.2765788964694
 21
18.78041421262813
 31
0.0000000000000000
  0
LINE
  5
53F
100
AcDbEntity
  8
WAKU0
  6
CENTER
 62
12
100
AcDbLine
 10
317.4474565857986
 20
14.55921662918448
 30
0.0000000000000000
 11
317.4474565857986
 21
22.89865102149943
 31
0.0000000000000000
  0
LINE
  5
540
100
AcDbEntity
  8
WAKU0
  6
CONTINUOUS
 62
3
100
AcDbLine
 10
323.9336941228225
 20
20.28041421262797
 30
0.0000000000000000
 11
330.4713877753800
 21
21.78041421262795
 31
0.0000000000000000
  0
LINE
  5
541
100
AcDbEntity
  8
WAKU0
  6
CONTINUOUS
 62
3
100
AcDbLine
 10
323.9336941228225
 20
17.28041421262811
 30
0.0000000000000000
 11
330.4713877753799
 21
15.78041421262812
 31
0.0000000000000000
  0
CIRCLE
  5
542
100
AcDbEntity
  8
WAKU0
  6
CONTINUOUS
 62
3
100
AcDbCircle
 10
317.4474565857986
 20
18.78041421262813
 30
0.0000000000000000
 40
1.499999999999972
  0
CIRCLE
  5
543
100
AcDbEntity
  8
WAKU0
  6
CONTINUOUS
 62
3
100
AcDbCircle
 10
317.4474565857986
 20
18.78041421262813
 30
0.0000000000000000
 40
2.999999999999979
  0
ENDSEC
  0
SECTION
  2
OBJECTS
  0
DICTIONARY
  5
5A0
100
AcDbDictionary
  3
ACAD_GROUP
350
5A1
  3
ACAD_MLINESTYLE
350
5A2
  3
DWGPROPS
350
5A3
  0
DICTIONARY
  5
5A1
102
{ACAD_REACTORS
330
5A0
102
}
100
AcDbDictionary
  0
DICTIONARY
  5
5A2
102
{ACAD_REACTORS
330
5A0
102
}
100
AcDbDictionary
  3
STANDARD
350
5A4
  0
MLINESTYLE
  5
5A4
102
{ACAD_REACTORS
330
5A2
102
}
100
AcDbMlineStyle
  2
STANDARD
 70
     0
  3

 62
   256
 51
90.00
 52
90.00
 71
     2
 49
0.50
 62
   256
  6
BYLAYER
 49
-0.50
 62
   256
  6
BYLAYER
  0
XRECORD
  5
5A3
102
{ACAD_REACTORS
330
5A0
102
}
100
AcDbXrecord
280
     1
  1
DWGPROPS COOKIE
  2
ＰＬＳ０４　ガイケイ
  3

  4

  6
ワークグリッパ　４
  7

  8

  9

300
=
301
=
302
=
303
=
304
=
305
=
306
=
307
=
308
=
309
=
 40
0.000000
 41
0.000000
 42
0.000000
  1

 90
        0
  0
ENDSEC
  0
EOF
